Video Sources 207 Views

  • Watch trailer
5 to 7 (2014)

5 to 7 (2014)

Loving someone... at the right time.Apr. 19, 2014United States98 Min.R
Your rating: 0
0 0 votes

Synopsis

A young writer begins an affair with an older woman from France whose open marriage to a diplomat dictates that they can meet only between the hours of 5 p.m. to 7 p.m.

5 to 7 (2014) 1080p BRrip HEVC AAC 5.1 PoOlLa (845 MB)

Format : Matroska
Format version : Version 4
File size : 846 MiB
Duration : 1 h 36 min
Overall bit rate : 1 220 kb/s
Encoded date : UTC 2021-07-18 02:17:38
Writing application : mkvmerge v44.0.0 (‘Domino’) 64-bit
Writing library : libebml v1.3.10 + libmatroska v1.5.2

Video
ID : 1
Format : HEVC
Format/Info : High Efficiency Video Coding
Format profile : [email protected]@Main
Codec ID : V_MPEGH/ISO/HEVC
Duration : 1 h 36 min
Bit rate : 842 kb/s
Width : 1 920 pixels
Height : 804 pixels
Display aspect ratio : 2.40:1
Frame rate mode : Variable
Frame rate : 24.000 FPS
Color space : YUV
Chroma subsampling : 4:2:0
Bit depth : 8 bits
Bits/(Pixel*Frame) : 0.023
Stream size : 584 MiB (69%)
Default : Yes
Forced : No
Color range : Limited
Color primaries : BT.709
Transfer characteristics : BT.709
Matrix coefficients : BT.709

Audio
ID : 2
Format : AAC LC
Format/Info : Advanced Audio Codec Low Complexity
Codec ID : A_AAC-2
Duration : 1 h 36 min
Bit rate : 375 kb/s
Channel(s) : 6 channels
Channel layout : L R C Cb Lb Rb
Sampling rate : 48.0 kHz
Frame rate : 46.875 FPS (1024 SPF)
Compression mode : Lossy
Stream size : 260 MiB (31%)
Language : English
Default : Yes
Forced : No

Text
ID : 3
Format : UTF-8
Codec ID : S_TEXT/UTF8
Codec ID/Info : UTF-8 Plain Text
Duration : 1 h 30 min
Bit rate : 63 b/s
Count of elements : 1286
Stream size : 42.1 KiB (0%)
Language : English
Default : Yes
Forced : No

5 to 7 (2014) 720p BRrip HEVC 10bit Opus 2.0 PoOlLa (315 Mb)

Format : Matroska
Format version : Version 4
File size : 317 MiB
Duration : 1 h 36 min
Overall bit rate : 458 kb/s
Encoded date : UTC 2021-07-18 02:16:47
Writing application : mkvmerge v44.0.0 (‘Domino’) 64-bit
Writing library : libebml v1.3.10 + libmatroska v1.5.2 / Lavf59.3.100

Video
ID : 1
Format : HEVC
Format/Info : High Efficiency Video Coding
Format profile : Main [email protected]@Main
Codec ID : V_MPEGH/ISO/HEVC
Duration : 1 h 36 min
Bit rate : 393 kb/s
Width : 1 280 pixels
Height : 536 pixels
Display aspect ratio : 2.40:1
Frame rate mode : Variable
Frame rate : 24.000 FPS
Color space : YUV
Chroma subsampling : 4:2:0
Bit depth : 10 bits
Bits/(Pixel*Frame) : 0.024
Stream size : 272 MiB (86%)
Default : Yes
Forced : No
Color range : Limited
Color primaries : BT.709
Transfer characteristics : BT.709
Matrix coefficients : BT.709

Audio
ID : 2
Format : Opus
Codec ID : A_OPUS
Duration : 1 h 36 min
Bit rate : 63.0 kb/s
Channel(s) : 2 channels
Channel layout : L R
Sampling rate : 48.0 kHz
Frame rate : 50.000 FPS (960 SPF)
Compression mode : Lossy
Stream size : 43.7 MiB (14%)
Language : English
Default : Yes
Forced : No

Text
ID : 3
Format : UTF-8
Codec ID : S_TEXT/UTF8
Codec ID/Info : UTF-8 Plain Text
Duration : 1 h 30 min
Bit rate : 63 b/s
Count of elements : 1286
Stream size : 42.1 KiB (0%)
Language : English
Default : Yes
Forced : No

Telegram  Download Guide  Donate

5 to 7 (2014)
5 to 7 (2014)
Original title 5 to 7
IMDb Rating 7.1 19,349 votes
TMDb Rating 7.2 286 votes

Director

Victor Levin
Director

Cast

Anton Yelchin isBrian Bloom
Brian Bloom
Bérénice Marlohe isArielle Pierpont
Arielle Pierpont
Lambert Wilson isValery Pierpont
Valery Pierpont
Glenn Close isArlene Bloom
Arlene Bloom
Eric Stoltz isJonathan Galassi
Jonathan Galassi
Jocelyn DeBoer isKiva Bloom
Kiva Bloom
David Shannon isJim Sheehy
Jim Sheehy

Similar titles

Without Witness (1983)
All Things Fair
IDI: Inspector Dawood Ibrahim
OK Kanmani (2015)
Halal Love Story
24 (2016)
Castaway on the Moon (2009)
Fast Times at Ridgemont High
The Shock
On Your Wedding Day (2018)
Pencil(2016)
Soul (2020)
CinemaKottaga