Video Sources 413 Views

  • Watch trailer
A Bittersweet Life (2005)

A Bittersweet Life (2005)

Mar. 31, 2005South Korea120 Min.N/A
Your rating: 0
0 0 votes

Synopsis

Kim Sun-woo is an enforcer and manager for a hotel owned by a cold, calculative crime boss, Kang who assigns Sun-Woo to a simple errand while he is away on a business trip; to shadow his young mistress, Heesoo, for fear that she may be cheating on him with another, younger man, with the mandate that he must kill them both if he discovers their affair.

A Bittersweet Life (2005) 1080p BRrip HEVC DDP 5.1 PoOlLa (3.2 GB)

Format : Matroska
Format version : Version 4
File size : 3.19 GiB
Duration : 1 h 59 min
Overall bit rate : 3 821 kb/s
Encoded date : UTC 2020-11-14 13:24:49
Writing application : mkvmerge v51.0.0 (‘I Wish’) 64-bit
Writing library : libebml v1.4.0 + libmatroska v1.6.2 / Lavf58.49.100

Video
ID : 1
Format : HEVC
Format/Info : High Efficiency Video Coding
Format profile : [email protected]@Main
Codec ID : V_MPEGH/ISO/HEVC
Duration : 1 h 59 min
Bit rate : 3 179 kb/s
Width : 1 920 pixels
Height : 772 pixels
Display aspect ratio : 2.487
Frame rate mode : Variable
Frame rate : 23.976 FPS
Color space : YUV
Chroma subsampling : 4:2:0
Bit depth : 8 bits
Bits/(Pixel*Frame) : 0.089
Stream size : 2.65 GiB (83%)
Title : cinemakotta.ga
Writing library : x265 3.4:[Linux][GCC 8.3.0][64 bit] 8bit+10bit+12bit
Default : Yes
Forced : Yes
Color range : Limited
Color primaries : BT.709
Transfer characteristics : BT.709
Matrix coefficients : BT.709

Audio
ID : 2
Format : E-AC-3
Format/Info : Enhanced AC-3
Commercial name : Dolby Digital Plus
Codec ID : A_EAC3
Duration : 1 h 59 min
Bit rate mode : Constant
Bit rate : 640 kb/s
Channel(s) : 6 channels
Channel layout : L R C LFE Ls Rs
Sampling rate : 48.0 kHz
Frame rate : 31.250 FPS (1536 SPF)
Compression mode : Lossy
Stream size : 546 MiB (17%)
Writing library : Lavc58.99.100 eac3
Language : Kannada
Service kind : Complete Main
Default : Yes
Forced : Yes

Text
ID : 3
Format : UTF-8
Codec ID : S_TEXT/UTF8
Codec ID/Info : UTF-8 Plain Text
Duration : 1 h 55 min
Bit rate : 23 b/s
Count of elements : 735
Stream size : 20.2 KiB (0%)
Language : English
Default : Yes
Forced : No

A Bittersweet Life (2005) 1080p BRrip HEVC AAC 5.1 PoOlLa (1.4 GB)

Format : Matroska
Format version : Version 4
File size : 1.41 GiB
Duration : 1 h 59 min
Overall bit rate : 1 687 kb/s
Movie name : A Bittersweet Life (2005) Ripped By PoOlLa | cinemakottaga.ml
Encoded date : UTC 2021-07-03 01:39:41
Writing application : mkvmerge v56.1.0 (‘My Friend’) 64-bit
Writing library : libebml v1.4.2 + libmatroska v1.6.4
Cover : Yes
Attachments : cover.jpg

Video
ID : 1
Format : HEVC
Format/Info : High Efficiency Video Coding
Format profile : Main [email protected]@Main
Codec ID : V_MPEGH/ISO/HEVC
Duration : 1 h 59 min
Bit rate : 1 389 kb/s
Width : 1 920 pixels
Height : 816 pixels
Display aspect ratio : 2.35:1
Frame rate mode : Constant
Frame rate : 23.976 (24000/1001) FPS
Color space : YUV
Chroma subsampling : 4:2:0
Bit depth : 10 bits
Bits/(Pixel*Frame) : 0.037
Stream size : 1.16 GiB (82%)
Default : Yes
Forced : No
Color range : Limited
Color primaries : BT.709
Transfer characteristics : BT.709
Matrix coefficients : BT.709

Audio
ID : 2
Format : AAC LC
Format/Info : Advanced Audio Codec Low Complexity
Codec ID : A_AAC-2
Duration : 1 h 59 min
Bit rate : 296 kb/s
Channel(s) : 6 channels
Channel layout : C L R Ls Rs LFE
Sampling rate : 48.0 kHz
Frame rate : 46.875 FPS (1024 SPF)
Compression mode : Lossy
Stream size : 253 MiB (18%)
Title : Dolby Digital Plus 5.1
Language : Korean
Default : Yes
Forced : No

Text
ID : 3
Format : UTF-8
Codec ID : S_TEXT/UTF8
Codec ID/Info : UTF-8 Plain Text
Duration : 1 h 54 min
Bit rate : 24 b/s
Count of elements : 741
Stream size : 20.3 KiB (0%)
Title : SRT
Language : English
Default : Yes
Forced : No

A Bittersweet Life (2005) 720p BRrip HEVC 10bit AAC 2.0 PoOlLa (495 MB)

Format : Matroska
Format version : Version 4
File size : 497 MiB
Duration : 1 h 59 min
Overall bit rate : 582 kb/s
Movie name : ENcoded By PoOlLa
Encoded date : UTC 2020-11-14 13:23:24
Writing application : mkvmerge v51.0.0 (‘I Wish’) 64-bit
Writing library : libebml v1.4.0 + libmatroska v1.6.2

Video
ID : 1
Format : HEVC
Format/Info : High Efficiency Video Coding
Format profile : Main [email protected]@Main
Codec ID : V_MPEGH/ISO/HEVC
Duration : 1 h 59 min
Bit rate : 519 kb/s
Width : 1 280 pixels
Height : 514 pixels
Display aspect ratio : 2.490
Frame rate mode : Constant
Frame rate : 23.976 (24000/1001) FPS
Color space : YUV
Chroma subsampling : 4:2:0
Bit depth : 10 bits
Bits/(Pixel*Frame) : 0.033
Stream size : 443 MiB (89%)
Title : cinemakotta.ga
Default : Yes
Forced : No

Audio
ID : 2
Format : AAC LC SBR
Format/Info : Advanced Audio Codec Low Complexity with Spectral Band Replication
Commercial name : HE-AAC
Format settings : Explicit
Codec ID : A_AAC-2
Duration : 1 h 59 min
Bit rate : 61.5 kb/s
Channel(s) : 2 channels
Channel layout : L R
Sampling rate : 48.0 kHz
Frame rate : 23.438 FPS (2048 SPF)
Compression mode : Lossy
Delay relative to video : 23 ms
Stream size : 52.5 MiB (11%)
Title : cinemakotta.ga
Language : Korean
Default : No
Forced : No

Text
ID : 3
Format : UTF-8
Codec ID : S_TEXT/UTF8
Codec ID/Info : UTF-8 Plain Text
Duration : 1 h 55 min
Bit rate : 23 b/s
Count of elements : 735
Stream size : 20.2 KiB (0%)
Title : cinemakotta.ga
Language : English
Default : Yes
Forced : No



Telegram  Download Guide  Donate

A Bittersweet Life (2005)
A Bittersweet Life (2005)
A Bittersweet Life (2005)
Original title 달콤한 인생
IMDb Rating 7.6 36,485 votes
TMDb Rating 7.5 480 votes

Director

Kim Jee-woon
Director

Cast

Shin Min-a isHee-soo
Hee-soo
Hwang Jung-min isPresident Baek
President Baek
Jin Goo isMin-gi
Min-gi
Kim Roe-ha isMun-suk
Mun-suk
Oh Dal-su isMyung-gu
Myung-gu
Lee Ki-young isMu-sung (uncredited)
Mu-sung (uncredited)
Kim Hae-gon isTae-woong (uncredited)
Tae-woong (uncredited)
Eric Mun isTae-goo [Gun dealer's brother
Tae-goo [Gun dealer's brother

Similar titles

F.I.R.
Satantango
À Nos Amours (1983)
Raya and the Last Dragon (2021)
Milk (2008)
La Flor (2019)
For a Cop’s Hide
Joseph (2018)
Lady Macbeth (2016)
Perfume: The Story of a Murderer (2006)
Peninsula (2020)
The Raid 2 (2014)
CinemaKottaga