Video Sources 2027 Views

  • Watch trailer
A Quiet Place Part II (2021)

A Quiet Place Part II (2021)

Silence is not enough.May. 21, 2021United States97 Min.PG-13
Your rating: 0
7 1 vote

Synopsis

Following the events at home, the Abbott family now face the terrors of the outside world. Forced to venture into the unknown, they realize that the creatures that hunt by sound are not the only threats that lurk beyond the sand path.

A Quiet Place Part II (2021) 1080p 10bit WEB-DL HEVC DDP 5.1 Atmos PoOlLa (2 GB)

Format : Matroska
Format version : Version 4
File size : 2.05 GiB
Duration : 1 h 37 min
Overall bit rate : 3 030 kb/s
Writing application : Lavf57.83.100
Writing library : Lavf57.83.100
Comment : Ripped By PoOlLa @ cinemakottaga.ml
ErrorDetectionType : Per level 1

Video
ID : 1
Format : HEVC
Format/Info : High Efficiency Video Coding
Format profile : Main [email protected]@Main
Codec ID : V_MPEGH/ISO/HEVC
Duration : 1 h 37 min
Bit rate : 2 202 kb/s
Width : 1 916 pixels
Height : 798 pixels
Display aspect ratio : 2.40:1
Frame rate mode : Constant
Frame rate : 23.976 (24000/1001) FPS
Color space : YUV
Chroma subsampling : 4:2:0
Bit depth : 10 bits
Bits/(Pixel*Frame) : 0.060
Stream size : 1.49 GiB (73%)
Writing library : Lavc57.107.100 hevc_nvenc
Default : Yes
Forced : No

Audio
ID : 2
Format : E-AC-3 JOC
Format/Info : Enhanced AC-3 with Joint Object Coding
Commercial name : Dolby Digital Plus with Dolby Atmos
Codec ID : A_EAC3
Duration : 1 h 37 min
Bit rate mode : Constant
Bit rate : 768 kb/s
Channel(s) : 6 channels
Channel layout : L R C LFE Ls Rs
Sampling rate : 48.0 kHz
Frame rate : 31.250 FPS (1536 SPF)
Bit depth : 32 bits
Compression mode : Lossy
Stream size : 533 MiB (25%)
Service kind : Complete Main
Default : No
Forced : No
Complexity index : 16
Number of dynamic objects : 15
Bed channel count : 1 channel
Bed channel configuration : LFE

Text
ID : 3
Format : ASS
Codec ID : S_TEXT/ASS
Codec ID/Info : Advanced Sub Station Alpha
Duration : 1 h 36 min
Compression mode : Lossless
Writing library : Lavc57.107.100 ssa
Default : Yes
Forced : Yes

A Quiet Place Part II (2020) 1080p WEB-DL HEVC 10bit HDR DDP 5.1 Atmos PoOlLa (1.4 GB)

Format : Matroska
Format version : Version 4
File size : 1.39 GiB
Duration : 1 h 37 min
Overall bit rate : 2 058 kb/s
Encoded date : UTC 2021-06-28 17:43:22
Writing application : mkvmerge v56.1.0 (‘My Friend’) 64-bit
Writing library : libebml v1.4.2 + libmatroska v1.6.4

Video
ID : 1
Format : HEVC
Format/Info : High Efficiency Video Coding
Format profile : Main [email protected]@High
HDR format : SMPTE ST 2086, HDR10 compatible
Codec ID : V_MPEGH/ISO/HEVC
Duration : 1 h 37 min
Bit rate : 1 288 kb/s
Width : 1 920 pixels
Height : 804 pixels
Display aspect ratio : 2.40:1
Frame rate mode : Constant
Frame rate : 23.976 (24000/1001) FPS
Color space : YUV
Chroma subsampling : 4:2:0 (Type 2)
Bit depth : 10 bits
Bits/(Pixel*Frame) : 0.035
Stream size : 894 MiB (63%)
Default : Yes
Forced : No
Color range : Limited
Color primaries : BT.2020
Transfer characteristics : PQ
Matrix coefficients : BT.2020 non-constant
Mastering display color pri : Display P3
Mastering display luminance : min: 0.0050 cd/m2, max: 1000 cd/m2
Maximum Content Light Level : 1450 cd/m2
Maximum Frame-Average Light : 278 cd/m2

Audio
ID : 2
Format : E-AC-3 JOC
Format/Info : Enhanced AC-3 with Joint Object Coding
Commercial name : Dolby Digital Plus with Dolby Atmos
Codec ID : A_EAC3
Duration : 1 h 37 min
Bit rate mode : Constant
Bit rate : 768 kb/s
Channel(s) : 6 channels
Channel layout : L R C LFE Ls Rs
Sampling rate : 48.0 kHz
Frame rate : 31.250 FPS (1536 SPF)
Compression mode : Lossy
Stream size : 533 MiB (37%)
Language : English
Service kind : Complete Main
Default : No
Forced : No
Complexity index : 16
Number of dynamic objects : 15
Bed channel count : 1 channel
Bed channel configuration : LFE

Text
ID : 3
Format : UTF-8
Codec ID : S_TEXT/UTF8
Codec ID/Info : UTF-8 Plain Text
Duration : 47 min 28 s
Bit rate : 3 b/s
Count of elements : 69
Stream size : 1.26 KiB (0%)
Title : English [Forced]
Language : English
Default : Yes
Forced : Yes

A Quiet Place Part II (2020) 1080p 10bit WEB-DL DDP 5.1 x265 HEVC MPEG7 (1.5GB)

Source …: A.Quiet.Place.Part.II.2020.PROPER.1080p.WEB-DL.DDP5.1.Atmos.H264-CMRG

Format : Matroska
Format version : Version 4
File size : 1.53 GiB
Duration : 1 h 37 min
Overall bit rate : 2 254 kb/s
Movie name : A.Quiet.Place.Part.II.2020.1080p.10bit.WEB-DL.x265.HEVC.E-AC3.5.1-MPEG7 | www.cinemakottaga.ml
Encoded date : UTC 2021-06-28 12:49:51
Writing application : mkvmerge v58.0.0 (‘Supper’s Ready’) 64-bit
Writing library : libebml v1.4.2 + libmatroska v1.6.4
Cover : Yes
Attachments : cover.jpg

Video
ID : 1
Format : HEVC
Format/Info : High Efficiency Video Coding
Format profile : Main [email protected]@Main
Codec ID : V_MPEGH/ISO/HEVC
Duration : 1 h 37 min
Bit rate : 1 867 kb/s
Width : 1 916 pixels
Height : 798 pixels
Display aspect ratio : 2.40:1
Frame rate mode : Constant
Frame rate : 23.976 (24000/1001) FPS
Color space : YUV
Chroma subsampling : 4:2:0
Bit depth : 10 bits
Bits/(Pixel*Frame) : 0.051
Stream size : 1.27 GiB (83%)
Title : MPEG7 | www.cinemakottaga.ml
Default : Yes
Forced : No
Color range : Limited
Color primaries : BT.709
Transfer characteristics : BT.709
Matrix coefficients : BT.709

Audio
ID : 2
Format : E-AC-3
Format/Info : Enhanced AC-3
Commercial name : Dolby Digital Plus
Codec ID : A_EAC3
Duration : 1 h 37 min
Bit rate mode : Constant
Bit rate : 384 kb/s
Channel(s) : 6 channels
Channel layout : L R C LFE Ls Rs
Sampling rate : 48.0 kHz
Frame rate : 31.250 FPS (1536 SPF)
Bit depth : 32 bits
Compression mode : Lossy
Stream size : 266 MiB (17%)
Title : MPEG7 | www.cinemakottaga.ml
Language : English
Service kind : Complete Main
Default : Yes
Forced : No

Text #1
ID : 3
Format : UTF-8
Codec ID : S_TEXT/UTF8
Codec ID/Info : UTF-8 Plain Text
Duration : 48 min 35 s
Bit rate : 3 b/s
Count of elements : 71
Stream size : 1.31 KiB (0%)
Title : MPEG7 | www.cinemakottaga.ml
Language : English
Default : Yes
Forced : No

Text #2
ID : 4
Format : UTF-8
Codec ID : S_TEXT/UTF8
Codec ID/Info : UTF-8 Plain Text
Duration : 1 h 35 min
Bit rate : 10 b/s
Count of elements : 329
Stream size : 7.61 KiB (0%)
Title : MPEG7 | www.cinemakottaga.ml
Language : Spanish
Default : No
Forced : No

Text #3
ID : 5
Format : UTF-8
Codec ID : S_TEXT/UTF8
Codec ID/Info : UTF-8 Plain Text
Duration : 1 h 35 min
Bit rate : 9 b/s
Count of elements : 299
Stream size : 6.95 KiB (0%)
Title : MPEG7 | www.cinemakottaga.ml
Language : French
Default : No
Forced : No

Text #4
ID : 6
Format : UTF-8
Codec ID : S_TEXT/UTF8
Codec ID/Info : UTF-8 Plain Text
Duration : 1 h 35 min
Bit rate : 10 b/s
Count of elements : 322
Stream size : 7.49 KiB (0%)
Title : MPEG7 | www.cinemakottaga.ml
Language : Portuguese
Default : No
Forced : No

Text #5
ID : 7
Format : UTF-8
Codec ID : S_TEXT/UTF8
Codec ID/Info : UTF-8 Plain Text
Duration : 1 h 35 min
Bit rate : 10 b/s
Count of elements : 326
Stream size : 7.49 KiB (0%)
Title : MPEG7 | www.cinemakottaga.ml
Language : Polish
Default : No
Forced : No

Text #6
ID : 8
Format : UTF-8
Codec ID : S_TEXT/UTF8
Codec ID/Info : UTF-8 Plain Text
Duration : 1 h 35 min
Bit rate : 11 b/s
Count of elements : 331
Stream size : 7.90 KiB (0%)
Title : MPEG7 | www.cinemakottaga.ml
Language : Turkish
Default : No
Forced : No

Text #7
ID : 9
Format : UTF-8
Codec ID : S_TEXT/UTF8
Codec ID/Info : UTF-8 Plain Text
Duration : 1 h 35 min
Bit rate : 11 b/s
Count of elements : 328
Stream size : 7.97 KiB (0%)
Title : MPEG7 | www.cinemakottaga.ml
Language : Swedish
Default : No
Forced : No

Text #8
ID : 10
Format : UTF-8
Codec ID : S_TEXT/UTF8
Codec ID/Info : UTF-8 Plain Text
Duration : 1 h 35 min
Bit rate : 9 b/s
Count of elements : 311
Stream size : 6.89 KiB (0%)
Title : MPEG7 | www.cinemakottaga.ml
Language : Danish
Default : No
Forced : No

Text #9
ID : 11
Format : UTF-8
Codec ID : S_TEXT/UTF8
Codec ID/Info : UTF-8 Plain Text
Duration : 1 h 35 min
Bit rate : 11 b/s
Count of elements : 333
Stream size : 8.05 KiB (0%)
Title : MPEG7 | www.cinemakottaga.ml
Language : Finnish
Default : No
Forced : No

Text #10
ID : 12
Format : UTF-8
Codec ID : S_TEXT/UTF8
Codec ID/Info : UTF-8 Plain Text
Duration : 1 h 35 min
Bit rate : 10 b/s
Count of elements : 333
Stream size : 7.12 KiB (0%)
Title : MPEG7 | www.cinemakottaga.ml
Language : Norwegian
Default : No
Forced : No

Text #11
ID : 13
Format : UTF-8
Codec ID : S_TEXT/UTF8
Codec ID/Info : UTF-8 Plain Text
Duration : 1 h 35 min
Bit rate : 17 b/s
Count of elements : 331
Stream size : 12.4 KiB (0%)
Title : MPEG7 | www.cinemakottaga.ml
Language : Russian
Default : No
Forced : No

Text #12
ID : 14
Format : UTF-8
Codec ID : S_TEXT/UTF8
Codec ID/Info : UTF-8 Plain Text
Duration : 1 h 35 min
Bit rate : 17 b/s
Count of elements : 339
Stream size : 12.4 KiB (0%)
Title : MPEG7 | www.cinemakottaga.ml
Language : Ukrainian
Default : No
Forced : No

Text #13
ID : 15
Format : UTF-8
Codec ID : S_TEXT/UTF8
Codec ID/Info : UTF-8 Plain Text
Duration : 1 h 35 min
Bit rate : 10 b/s
Count of elements : 334
Stream size : 7.69 KiB (0%)
Title : MPEG7 | www.cinemakottaga.ml
Language : Hungarian
Default : No
Forced : No

Text #14
ID : 16
Format : UTF-8
Codec ID : S_TEXT/UTF8
Codec ID/Info : UTF-8 Plain Text
Duration : 1 h 35 min
Bit rate : 17 b/s
Count of elements : 324
Stream size : 12.5 KiB (0%)
Title : MPEG7 | www.cinemakottaga.ml
Language : Greek
Default : No
Forced : No

Text #15
ID : 17
Format : UTF-8
Codec ID : S_TEXT/UTF8
Codec ID/Info : UTF-8 Plain Text
Duration : 1 h 35 min
Bit rate : 14 b/s
Count of elements : 336
Stream size : 10.2 KiB (0%)
Title : MPEG7 | www.cinemakottaga.ml
Language : Hebrew
Default : No
Forced : No

Text #16
ID : 18
Format : UTF-8
Codec ID : S_TEXT/UTF8
Codec ID/Info : UTF-8 Plain Text
Duration : 1 h 35 min
Bit rate : 15 b/s
Count of elements : 335
Stream size : 10.9 KiB (0%)
Title : MPEG7 | www.cinemakottaga.ml
Language : Arabic
Default : No
Forced : No

Text #17
ID : 19
Format : UTF-8
Codec ID : S_TEXT/UTF8
Codec ID/Info : UTF-8 Plain Text
Duration : 1 h 35 min
Bit rate : 10 b/s
Count of elements : 326
Stream size : 7.32 KiB (0%)
Title : MPEG7 | www.cinemakottaga.ml
Language : Czech
Default : No
Forced : No

Text #18
ID : 20
Format : UTF-8
Codec ID : S_TEXT/UTF8
Codec ID/Info : UTF-8 Plain Text
Duration : 1 h 35 min
Bit rate : 10 b/s
Count of elements : 325
Stream size : 7.57 KiB (0%)
Title : MPEG7 | www.cinemakottaga.ml
Language : Indonesian
Default : No
Forced : No

Text #19
ID : 21
Format : UTF-8
Codec ID : S_TEXT/UTF8
Codec ID/Info : UTF-8 Plain Text
Duration : 1 h 35 min
Bit rate : 11 b/s
Count of elements : 333
Stream size : 7.90 KiB (0%)
Title : MPEG7 | www.cinemakottaga.ml
Language : Malay
Default : No
Forced : No

Text #20
ID : 22
Format : UTF-8
Codec ID : S_TEXT/UTF8
Codec ID/Info : UTF-8 Plain Text
Duration : 1 h 35 min
Bit rate : 14 b/s
Count of elements : 329
Stream size : 9.98 KiB (0%)
Title : MPEG7 | www.cinemakottaga.ml
Language : Vietnamese
Default : No
Forced : No

Text #21
ID : 23
Format : UTF-8
Codec ID : S_TEXT/UTF8
Codec ID/Info : UTF-8 Plain Text
Duration : 1 h 35 min
Bit rate : 10 b/s
Count of elements : 331
Stream size : 7.02 KiB (0%)
Title : MPEG7 | www.cinemakottaga.ml
Language : Chinese
Default : No
Forced : No

Text #22
ID : 24
Format : UTF-8
Codec ID : S_TEXT/UTF8
Codec ID/Info : UTF-8 Plain Text
Duration : 1 h 35 min
Bit rate : 11 b/s
Count of elements : 331
Stream size : 7.76 KiB (0%)
Title : MPEG7 | www.cinemakottaga.ml
Language : Chinese
Default : No
Forced : No

Text #23
ID : 25
Format : UTF-8
Codec ID : S_TEXT/UTF8
Codec ID/Info : UTF-8 Plain Text
Duration : 1 h 35 min
Bit rate : 9 b/s
Count of elements : 330
Stream size : 6.65 KiB (0%)
Title : MPEG7 | www.cinemakottaga.ml
Language : Chinese
Default : No
Forced : No

Text #24
ID : 26
Format : UTF-8
Codec ID : S_TEXT/UTF8
Codec ID/Info : UTF-8 Plain Text
Duration : 1 h 35 min
Bit rate : 10 b/s
Count of elements : 346
Stream size : 7.52 KiB (0%)
Title : MPEG7 | www.cinemakottaga.ml
Language : Japanese
Default : No
Forced : No

Menu
00:00:00.000 : Scene 1
00:06:39.107 : Scene 2
00:12:16.319 : Scene 3
00:17:00.270 : Scene 4
00:26:28.171 : Scene 5
00:33:26.339 : Scene 6
00:38:06.703 : Scene 7
00:45:53.753 : Scene 8
00:51:18.036 : Scene 9
00:55:35.919 : Scene 10
01:02:21.282 : Scene 11
01:08:43.832 : Scene 12
01:16:31.925 : Scene 13
01:21:25.885 : Scene 14
01:28:11.833 : Scene 15

A Quiet Place Part II (2020) 720p 10bit WEB-DL 2CH HEVC HSB (590MB)

Source …….:A.Quiet.Place.Part.II.2020.1080p.WEB.H264-SHHH
Runtime ……: 1hr 37min
Video ……..: HEVC | 1280 x 534 | 10bit
Audio ……..: 2CH HE-AAC English
Subs …………: English

A Quiet Place Part II (2020) 720p WEB-DL 2CH HEVC MPEG7 (390MB)

Source …: A.Quiet.Place.Part.II.2020.PROPER.1080p.WEB-DL.DDP5.1.Atmos.H264-CMRG

Format : Matroska
Format version : Version 4
File size : 394 MiB
Duration : 1 h 37 min
Overall bit rate : 568 kb/s
Movie name : A.Quiet.Place.II.2021.720p.WEB-DL.x265.2CH.HEVC-MPEG7 | www.cinemakottaga.ml
Encoded date : UTC 2021-06-28 16:22:29
Writing application : mkvmerge v58.0.0 (‘Supper’s Ready’) 64-bit
Writing library : libebml v1.4.2 + libmatroska v1.6.4
Cover : Yes
Attachments : cover.jpg

Video
ID : 1
Format : HEVC
Format/Info : High Efficiency Video Coding
Format profile : [email protected]@Main
Codec ID : V_MPEGH/ISO/HEVC
Duration : 1 h 37 min
Bit rate : 501 kb/s
Width : 1 280 pixels
Height : 534 pixels
Display aspect ratio : 2.40:1
Frame rate mode : Variable
Frame rate : 23.976 FPS
Color space : YUV
Chroma subsampling : 4:2:0
Bit depth : 8 bits
Bits/(Pixel*Frame) : 0.031
Stream size : 348 MiB (88%)
Title : MPEG7 | www.cinemakottaga.ml
Default : Yes
Forced : No
Color range : Limited
Color primaries : BT.709
Transfer characteristics : BT.709
Matrix coefficients : BT.709

Audio
ID : 2
Format : AAC LC SBR
Format/Info : Advanced Audio Codec Low Complexity with Spectral Band Replication
Commercial name : HE-AAC
Format settings : NBC
Codec ID : A_AAC-5
Duration : 1 h 37 min
Bit rate : 64.0 kb/s
Channel(s) : 2 channels
Channel layout : L R
Sampling rate : 48.0 kHz
Frame rate : 23.438 FPS (2048 SPF)
Compression mode : Lossy
Stream size : 44.4 MiB (11%)
Title : MPEG7 | www.cinemakottaga.ml
Language : English
Default : Yes
Forced : No

Text
ID : 3
Format : UTF-8
Codec ID : S_TEXT/UTF8
Codec ID/Info : UTF-8 Plain Text
Duration : 48 min 35 s
Bit rate : 3 b/s
Count of elements : 71
Stream size : 1.31 KiB (0%)
Title : MPEG7 | www.cinemakottaga.ml
Language : English
Default : Yes
Forced : No

A Quiet Place Part II (2020) 720p 10bit BluRay 2CH HEVC HSB (606MB)

Source …….: A.Quiet.Place.Part.II.2020.1080p.Blu-ray.Remux.AVC.TrueHD.Atmos.7.1-PARAMOUNT
Runtime ……: 1hr 37min
Video ……..: HEVC | 1280 x 534 | 10bit
Audio ……..: 2CH HE-AAC English
Subs …………: English

A Quiet Place Part II (2020) 1080p 10bit BluRay 8CH HEVC HSB (1.26GB)

Source …….: A.Quiet.Place.Part.II.2020.1080p.Blu-ray.Remux.AVC.TrueHD.Atmos.7.1-PARAMOUNT
Runtime ……: 1hr 37min
Video ……..: HEVC | 1920 x 802 | 10bit
Audio ……..: 8CH HE-AAC English
Subs …………: English

Telegram  Download Guide  Donate

A Quiet Place Part II (2021)
A Quiet Place Part II (2021)
A Quiet Place Part II (2021)
A Quiet Place Part II (2021)
A Quiet Place Part II (2021)
A Quiet Place Part II (2021)
A Quiet Place Part II (2021)
A Quiet Place Part II (2021)
A Quiet Place Part II (2021)
A Quiet Place Part II (2021)
Original title A Quiet Place Part II
IMDb Rating 7.8 39,196 votes
TMDb Rating 7.5 587 votes

Director

Cast

Emily Blunt isEvelyn Abbott
Evelyn Abbott
John Krasinski isLee Abbott
Lee Abbott
Millicent Simmonds isRegan Abbott
Regan Abbott
Noah Jupe isMarcus Abbott
Marcus Abbott
Djimon Hounsou isMan on Island
Man on Island
Silas Pereira-Olson is7 Year Old Island Boy (uncredited)
7 Year Old Island Boy (uncredited)

Similar titles

Kammara Sambhavam (2018)
Bairavaa (2017)
Silk Road (2021)
Captain America: The First Avenger
Lux Æterna (2019)
Army of the Dead (2021)
The Tomorrow War (2021)
Three (2016)
Mr. India (1987)
The Bourne Ultimatum (2007)
Adam Joan (2017)
Ayalum Njanum Thammil(2012)
CinemaKottaga