Video Sources 149 Views

  • Watch trailer
A Special Day (1977)

A Special Day (1977)

A special film about two special people.Aug. 11, 1977Italy106 Min.N/A
Your rating: 0
0 0 votes

Synopsis

The film is set during the late 1930s: the occasion is the first meeting between Mussolini and Hitler. Left alone in her tenement home when her fascist husband runs off to attend the historic event, Antonietta strikes up a friendship with her neighbor Gabriele. As the day segues into night, Antonietta and Gabriele develop a very special relationship that will radically alter both of their outlooks on life.

Una giornata particolare (1977) 1080p Criterion BRrip HEVC 10bit AAC 1.0 PoOlLa (1.6 GB)

Format : Matroska
Format version : Version 4
File size : 1.65 GiB
Duration : 1 h 46 min
Overall bit rate : 2 216 kb/s
Encoded date : UTC 2021-07-13 10:28:10
Writing application : mkvmerge v56.1.0 (‘My Friend’) 64-bit
Writing library : libebml v1.4.2 + libmatroska v1.6.4 / Lavf58.76.100
Comment : Ripped By PoOlLa @ cinemakottaga.ml

Video
ID : 1
Format : HEVC
Format/Info : High Efficiency Video Coding
Format profile : Main [email protected]@Main
Codec ID : V_MPEGH/ISO/HEVC
Duration : 1 h 46 min
Bit rate : 1 926 kb/s
Width : 1 920 pixels
Height : 1 036 pixels
Display aspect ratio : 1.85:1
Frame rate mode : Variable
Frame rate : 23.976 FPS
Color space : YUV
Chroma subsampling : 4:2:0
Bit depth : 10 bits
Bits/(Pixel*Frame) : 0.040
Stream size : 1.44 GiB (87%)
Title : Una giornata particolare (1977) Ripped By PoOlLa
Default : Yes
Forced : No
Color range : Limited

Audio
ID : 2
Format : AAC LC
Format/Info : Advanced Audio Codec Low Complexity
Codec ID : A_AAC-2
Duration : 1 h 46 min
Bit rate : 288 kb/s
Channel(s) : 1 channel
Channel layout : C
Sampling rate : 48.0 kHz
Frame rate : 46.875 FPS (1024 SPF)
Compression mode : Lossy
Stream size : 220 MiB (13%)
Language : Italian
Default : Yes
Forced : No

Text
ID : 3
Format : UTF-8
Codec ID : S_TEXT/UTF8
Codec ID/Info : UTF-8 Plain Text
Duration : 1 h 42 min
Bit rate : 50 b/s
Count of elements : 1117
Stream size : 37.6 KiB (0%)
Language : English
Default : Yes
Forced : No

Una giornata particolare (1977) 720p Criterion BRrip HEVC 10bit Opus 1.0 PoOlLa (490 Mb)

Format : Matroska
Format version : Version 4
File size : 492 MiB
Duration : 1 h 47 min
Overall bit rate : 642 kb/s
Writing application : Lavf59.2.100
Writing library : Lavf59.2.100
ErrorDetectionType : Per level 1

Video
ID : 1
Format : HEVC
Format/Info : High Efficiency Video Coding
Format profile : Main [email protected]@Main
Codec ID : V_MPEGH/ISO/HEVC
Duration : 1 h 47 min
Width : 1 280 pixels
Height : 690 pixels
Display aspect ratio : 1.85:1
Frame rate mode : Variable
Original frame rate : 23.976 FPS
Color space : YUV
Chroma subsampling : 4:2:0
Bit depth : 10 bits
Writing library : Lavc59.1.100 libx265
Default : Yes
Forced : No
Color range : Limited
Color primaries : BT.709
Transfer characteristics : BT.709
Matrix coefficients : BT.709

Audio
ID : 2
Format : Opus
Codec ID : A_OPUS
Duration : 1 h 47 min
Channel(s) : 1 channel
Channel layout : C
Sampling rate : 48.0 kHz
Bit depth : 24 bits
Compression mode : Lossy
Writing library : Lavc59.1.100 libopus
Default : Yes
Forced : No

Text
ID : 3
Format : UTF-8
Codec ID : S_TEXT/UTF8
Codec ID/Info : UTF-8 Plain Text
Duration : 1 h 42 min
Default : Yes
Forced : No

Telegram  Download Guide  Donate

A Special Day (1977)
A Special Day (1977)
A Special Day (1977)
Original title Una giornata particolare
IMDb Rating 8.1 12,473 votes
TMDb Rating 8.2 442 votes

Director

Ettore Scola
Director

Cast

Similar titles

Cell 211 (2009)
Vellinakshatram (2004)
Eka (2018)
Dhruvam
Anniyan(2005)
French Exit (2021)
Pieces of a Woman (2020)
The Chaser (2008)
The Unvanquished (1964)
Vettam(2004)
The Priest (2021)
Sherni (2021)
CinemaKottaga