Video Sources 49 Views

  • Watch trailer
A Sun (2019)

A Sun (2019)

Nov. 01, 2019Taiwan155 Min.N/A
Your rating: 0
8 1 vote

Synopsis

A family of four fractures under the weight of unmet expectations, unexpected tragedy, and uncompromising pride.

A Sun (2019) 1080p NF WEB-DL HEVC 10bit AAC 5.1 PoOlLa (1.4 GB)

Format : Matroska
Format version : Version 4
File size : 1.43 GiB
Duration : 2 h 36 min
Overall bit rate : 1 308 kb/s
Writing application : mkvmerge v59.0.0 (‘Shining Star’) 64-bit
Writing library : libebml v1.4.2 + libmatroska v1.6.4

Video
ID : 1
Format : HEVC
Format/Info : High Efficiency Video Coding
Format profile : Main 10@L4@High
Codec ID : V_MPEGH/ISO/HEVC
Duration : 2 h 36 min
Bit rate : 1 024 kb/s
Width : 1 920 pixels
Height : 804 pixels
Display aspect ratio : 2.40:1
Frame rate mode : Constant
Frame rate : 24.000 FPS
Color space : YUV
Chroma subsampling : 4:2:0
Bit depth : 10 bits
Bits/(Pixel*Frame) : 0.028
Stream size : 1.12 GiB (78%)
Title : Encoded by PoOlLa | cinemakottaga.ml
Color range : Limited
Color primaries : BT.709
Transfer characteristics : BT.709
Matrix coefficients : BT.709

Audio
ID : 2
Format : AAC LC
Format/Info : Advanced Audio Codec Low Complexity
Codec ID : A_AAC-2
Duration : 2 h 36 min
Bit rate : 282 kb/s
Channel(s) : 6 channels
Channel layout : C L R Ls Rs LFE
Sampling rate : 48.0 kHz
Frame rate : 46.875 FPS (1024 SPF)
Compression mode : Lossy
Delay relative to video : 20 ms
Stream size : 315 MiB (22%)
Title : Mandarin
Language : Chinese

Text
ID : 3
Format : UTF-8
Codec ID : S_TEXT/UTF8
Codec ID/Info : UTF-8 Plain Text
Language : English

A Sun (2019) 720p NF WEB-DL HEVC 10bit AAC 2.0 PoOlLa (654 MB)

Format : Matroska
Format version : Version 4
File size : 655 MiB
Duration : 2 h 36 min
Overall bit rate : 587 kb/s
Writing application : mkvmerge v59.0.0 (‘Shining Star’) 64-bit
Writing library : libebml v1.4.2 + libmatroska v1.6.4

Video
ID : 1
Format : HEVC
Format/Info : High Efficiency Video Coding
Format profile : Main 10@L3.1@Main
Codec ID : V_MPEGH/ISO/HEVC
Duration : 2 h 36 min
Bit rate : 519 kb/s
Width : 1 280 pixels
Height : 536 pixels
Display aspect ratio : 2.40:1
Frame rate mode : Constant
Frame rate : 24.000 FPS
Color space : YUV
Chroma subsampling : 4:2:0
Bit depth : 10 bits
Bits/(Pixel*Frame) : 0.032
Stream size : 579 MiB (88%)
Title : Encoded by PoOlLa | cinemakottaga.ml
Color range : Limited
Color primaries : BT.709
Transfer characteristics : BT.709
Matrix coefficients : BT.709

Audio
ID : 2
Format : AAC LC SBR
Format/Info : Advanced Audio Codec Low Complexity with Spectral Band Replication
Commercial name : HE-AAC
Format settings : Explicit
Codec ID : A_AAC-2
Duration : 2 h 36 min
Bit rate : 66.2 kb/s
Channel(s) : 2 channels
Channel layout : L R
Sampling rate : 48.0 kHz
Frame rate : 23.438 FPS (2048 SPF)
Compression mode : Lossy
Delay relative to video : 40 ms
Stream size : 73.7 MiB (11%)
Title : Mandarin
Language : Chinese

Text
ID : 3
Format : UTF-8
Codec ID : S_TEXT/UTF8
Language : English

Telegram  Download Guide  Donate

A Sun (2019)
A Sun (2019)
A Sun (2019)
A Sun (2019)
Original title 陽光普照
IMDb Rating 7.6 7,131 votes
TMDb Rating 7.6 116 votes

Director

Cast

Shu-qin Ke isMiss Qin
Miss Qin
Apple Wu isXiao-Yu
Xiao-Yu
Ivy Yin isMiss Yin
Miss Yin
Chen-Ling Wen isXiao-Zhen
Xiao-Zhen
Chih-Ju Lin isOden Senior
Oden Senior

Similar titles

Spadikam(1995)
Seven Samurai (1954)
Enchanted April (1991)
Scream (1996)
A Moment to Remember (2004)
Babette’s Feast (1987)
The Way of the Dragon (1972)
10,000 BC (2008)
Gandhi (1982)
Five Evenings (1979)
Little Forest: Summer/Autumn (2014)
Flic Story
CinemaKottaga