Anukshanam (2014)

Anukshanam (2014)

Sep. 12, 2014India105 Min.N/A
Your rating: 0
0 0 votes

Synopsis

Based on real-life events, this crime thriller traces the terrible trail left by a serial rapist and killer, highlighting the ensuing media coverage, public panic and one police officer’s personal crusade to capture the psychopath.

Anukshanam (2014) 720p 10bit BluRay 2CH HEVC MPEG7 (423MB)

Source …: Anukshanam.2014.1080p.Hybrid.WEB-DL.DDP5.1.x264-SymBiOTes

Format : Matroska
Format version : Version 4
File size : 423 MiB
Duration : 1 h 14 min
Overall bit rate : 793 kb/s
Movie name : Anukshanam.2014.720p.10bit.WEB-DL.x265.2CH.HEVC-MPEG7 | www.cinemakottaga.ml
Encoded date : UTC 2021-07-24 17:34:55
Writing application : mkvmerge v59.0.0 (‘Shining Star’) 64-bit
Writing library : libebml v1.4.2 + libmatroska v1.6.4
Cover : Yes
Attachments : cover.jpg

Video
ID : 1
Format : HEVC
Format/Info : High Efficiency Video Coding
Format profile : Main [email protected]@Main
Codec ID : V_MPEGH/ISO/HEVC
Duration : 1 h 14 min
Bit rate : 718 kb/s
Width : 1 280 pixels
Height : 544 pixels
Display aspect ratio : 2.35:1
Frame rate mode : Constant
Frame rate : 25.000 FPS
Color space : YUV
Chroma subsampling : 4:2:0
Bit depth : 10 bits
Bits/(Pixel*Frame) : 0.041
Stream size : 383 MiB (91%)
Default : Yes
Forced : No
Color range : Limited
Color primaries : BT.709
Transfer characteristics : BT.709
Matrix coefficients : BT.709

Audio
ID : 2
Format : AAC LC SBR
Format/Info : Advanced Audio Codec Low Complexity with Spectral Band Replication
Commercial name : HE-AAC
Format settings : NBC
Codec ID : A_AAC-5
Duration : 1 h 14 min
Bit rate : 72.0 kb/s
Channel(s) : 2 channels
Channel layout : L R
Sampling rate : 48.0 kHz
Frame rate : 23.438 FPS (2048 SPF)
Compression mode : Lossy
Delay relative to video : -105 ms
Stream size : 38.4 MiB (9%)
Language : Telugu
Default : Yes
Forced : No

Text
ID : 3
Format : UTF-8
Codec ID : S_TEXT/UTF8
Codec ID/Info : UTF-8 Plain Text
Duration : 1 h 11 min
Bit rate : 60 b/s
Count of elements : 837
Stream size : 31.7 KiB (0%)
Title : MPEG7 | www.cinemakottaga.ml
Language : English
Default : Yes
Forced : No

 

Anukshanam (2014) 1080p 10bit BluRay 6CH HEVC MPEG7 (1.25GB)

Source …: Anukshanam.2014.1080p.Hybrid.WEB-DL.DDP5.1.x264-SymBiOTes

Format : Matroska
Format version : Version 4
File size : 1.26 GiB
Duration : 1 h 14 min
Overall bit rate : 2 409 kb/s
Movie name : Anukshanam.2014.1080p.10bit.WEB-DL.DDP.6CH.HEVC-MPEG7 | www.cinemakottaga.ml
Encoded date : UTC 2021-07-24 17:36:19
Writing application : mkvmerge v59.0.0 (‘Shining Star’) 64-bit
Writing library : libebml v1.4.2 + libmatroska v1.6.4
Cover : Yes
Attachments : cover.jpg

Video
ID : 1
Format : HEVC
Format/Info : High Efficiency Video Coding
Format profile : Main [email protected]@Main
Codec ID : V_MPEGH/ISO/HEVC
Duration : 1 h 14 min
Bit rate : 2 214 kb/s
Width : 1 920 pixels
Height : 816 pixels
Display aspect ratio : 2.35:1
Frame rate mode : Constant
Frame rate : 25.000 FPS
Color space : YUV
Chroma subsampling : 4:2:0
Bit depth : 10 bits
Bits/(Pixel*Frame) : 0.057
Stream size : 1.15 GiB (92%)
Title : MPEG7 | www.cinemakottaga.ml
Default : Yes
Forced : No
Color range : Limited
Color primaries : BT.709
Transfer characteristics : BT.709
Matrix coefficients : BT.709

Audio
ID : 2
Format : E-AC-3
Format/Info : Enhanced AC-3
Commercial name : Dolby Digital Plus
Codec ID : A_EAC3
Duration : 1 h 14 min
Bit rate mode : Constant
Bit rate : 192 kb/s
Channel(s) : 6 channels
Channel layout : L R C LFE Ls Rs
Sampling rate : 48.0 kHz
Frame rate : 31.250 FPS (1536 SPF)
Bit depth : 32 bits
Compression mode : Lossy
Stream size : 102 MiB (8%)
Title : MPEG7 | www.cinemakottaga.ml
Service kind : Complete Main
Default : Yes
Forced : No

Text
ID : 3
Format : UTF-8
Codec ID : S_TEXT/UTF8
Codec ID/Info : UTF-8 Plain Text
Duration : 1 h 11 min
Bit rate : 60 b/s
Count of elements : 837
Stream size : 31.7 KiB (0%)
Title : MPEG7 | www.cinemakottaga.ml
Language : English
Default : Yes
Forced : No

 

 

Telegram  Download Guide  Donate

Original title అనుక్షణం
IMDb Rating 5.8 345 votes
TMDb Rating 6.5 2 votes

Director

Cast

Similar titles

Vellam (2021)
Brothers (2009)
Two Men in Town
Sound of Silence (2017)
Our Story
Enter the Void (2009)
Hera Pheri
Percy (2021)
Akashadoothu
The Godfather (1972)
Bāhubali 2: The Conclusion(2017)
303 (2018)
CinemaKottaga