Video Sources 70 Views

  • Watch trailer
Arabesque (1966)

Arabesque (1966)

Ultra Mod. Ultra Mad. Ultra Mystery.May. 04, 1966United States105 Min.N/A
Your rating: 0
6 1 vote

Synopsis

When a plot against a prominent Middle Eastern politician is uncovered, David Pollock, a professor of ancient hieroglyphics at Oxford University, is recruited to help expose the scheme. Pollock must find information believed to be in hieroglyphic code and must also contend with a mysterious man called Beshraavi. Meanwhile, Beshraavi’s lover, Yasmin Azir, seems willing to aid Pollock — but is she really on his side?

Arabesque (1966) 1080p BRrip HEVC 10bit AC3 2.0 PoOlLa (1.5 GB)

Format : Matroska
Format version : Version 4
File size : 1.51 GiB
Duration : 1 h 45 min
Overall bit rate : 2 051 kb/s
Encoded date : UTC 2021-08-10 08:55:23
Writing application : mkvmerge v56.1.0 (‘My Friend’) 64-bit
Writing library : libebml v1.4.2 + libmatroska v1.6.4

Video
ID : 1
Format : HEVC
Format/Info : High Efficiency Video Coding
Format profile : Main [email protected]@Main
Codec ID : V_MPEGH/ISO/HEVC
Duration : 1 h 45 min
Bit rate : 1 857 kb/s
Width : 1 920 pixels
Height : 816 pixels
Display aspect ratio : 2.35:1
Frame rate mode : Constant
Frame rate : 23.976 (24000/1001) FPS
Color space : YUV
Chroma subsampling : 4:2:0
Bit depth : 10 bits
Bits/(Pixel*Frame) : 0.049
Stream size : 1.37 GiB (91%)

Audio
ID : 2
Format : AC-3
Format/Info : Audio Coding 3
Commercial name : Dolby Digital
Codec ID : A_AC3
Duration : 1 h 45 min
Bit rate mode : Constant
Bit rate : 192 kb/s
Channel(s) : 2 channels
Channel layout : L R
Sampling rate : 48.0 kHz
Frame rate : 31.250 FPS (1536 SPF)
Bit depth : 32 bits
Compression mode : Lossy
Delay relative to video : -876 ms
Stream size : 145 MiB (9%)
Service kind : Complete Main

Text
ID : 3
Format : UTF-8
Codec ID : S_TEXT/UTF8
Codec ID/Info : UTF-8 Plain Text
Duration : 1 h 42 min
Stream size : 43.9 KiB (0%)
Language : English

Arabesque (1966) 720p BRrip HEVC 10bit Opus 2.0 PoOlLa (630 MB)

Format : Matroska
Format version : Version 4
File size : 631 MiB
Duration : 1 h 45 min
Overall bit rate : 837 kb/s
Movie name : Arabesque (1966) 720p BRrip HEVC 10bit Opus 2.0 PoOlLa
Encoded date : UTC 2021-08-10 08:54:45
Writing application : mkvmerge v56.1.0 (‘My Friend’) 64-bit
Writing library : libebml v1.4.2 + libmatroska v1.6.4

Video
ID : 1
Format : HEVC
Format/Info : High Efficiency Video Coding
Format profile : Main [email protected]@Main
Codec ID : V_MPEGH/ISO/HEVC
Duration : 1 h 45 min
Bit rate : 782 kb/s
Width : 1 280 pixels
Height : 544 pixels
Display aspect ratio : 2.35:1
Frame rate mode : Constant
Frame rate : 23.976 (24000/1001) FPS
Color space : YUV
Chroma subsampling : 4:2:0
Bit depth : 10 bits
Bits/(Pixel*Frame) : 0.047
Stream size : 589 MiB (93%)

Audio
ID : 2
Format : Opus
Codec ID : A_OPUS
Duration : 1 h 45 min
Bit rate : 52.0 kb/s
Channel(s) : 2 channels
Channel layout : L R
Sampling rate : 48.0 kHz
Frame rate : 50.000 FPS (960 SPF)
Bit depth : 32 bits
Compression mode : Lossy
Delay relative to video : -883 ms
Stream size : 39.2 MiB (6%)

Text
ID : 3
Format : UTF-8
Codec ID : S_TEXT/UTF8
Codec ID/Info : UTF-8 Plain Text
Duration : 1 h 42 min
Stream size : 43.9 KiB (0%)
Language : English

Telegram  Download Guide  Donate

Arabesque (1966)
Arabesque (1966)
Arabesque (1966)
Arabesque (1966)
Original title Arabesque
IMDb Rating 6.5 6,698 votes
TMDb Rating 6.1 94 votes

Director

Eric Rattray
Director

Cast

Gregory Peck isProf. David Pollock
Prof. David Pollock
Sophia Loren isYasmin Azir
Yasmin Azir
Alan Badel isBeshraavi
Beshraavi
Kieron Moore isYussef Kasim
Yussef Kasim
Carl Duering isHassan Jena
Hassan Jena
John Merivale isMaj. Sylvester Pennington Sloane
Maj. Sylvester Pennington Sloane
Ernest Clark isBeauchamp
Beauchamp
Harold Kasket isMohammed Lufti
Mohammed Lufti

Similar titles

Ravanaprabhu (2001)
The Favourite (2018)
Borat Subsequent Moviefilm
Blind Man’s Bluff (2005)
10,000 BC (2008)
Tuesday, After Christmas (2010)
The Way Back (2010)
Naran(2005)
Mackenna’s Gold (1969)
Yamadonga (2007)
Much Ado About Nothing
Veendum Chila Veettukaryangal
CinemaKottaga