Video Sources 124 Views

  • Watch trailer
Babette’s Feast (1987)

Babette’s Feast (1987)

Aug. 11, 1987Denmark102 Min.G
Your rating: 0
0 0 votes

Synopsis

A French housekeeper with a mysterious past brings quiet revolution in the form of one exquisite meal to a circle of starkly pious villagers in late 19th century Denmark.

Babette‘s Feast (1987) 1080p Criterion BRrip HEVC 10bit AAC 2.0 PoOlLa (1.3 GB)

Format : Matroska
Format version : Version 4
File size : 1.34 GiB
Duration : 1 h 43 min
Overall bit rate : 1 851 kb/s
Movie name : Babette‘s Feast (1987) Ripped By PoOlLa | Cinemakottaga.ml
Encoded date : UTC 2021-07-17 06:13:50
Writing application : mkvmerge v56.1.0 (‘My Friend’) 64-bit
Writing library : libebml v1.4.2 + libmatroska v1.6.4

Video
ID : 1
Format : HEVC
Format/Info : High Efficiency Video Coding
Format profile : Main [email protected]@High
Codec ID : V_MPEGH/ISO/HEVC
Duration : 1 h 43 min
Bit rate : 1 548 kb/s
Width : 1 792 pixels
Height : 1 080 pixels
Display aspect ratio : 5:3
Frame rate mode : Constant
Frame rate : 23.976 (24000/1001) FPS
Color space : YUV
Chroma subsampling : 4:2:0
Bit depth : 10 bits
Bits/(Pixel*Frame) : 0.033
Stream size : 1.12 GiB (84%)
Default : Yes
Forced : No
Color range : Limited
Color primaries : BT.709
Transfer characteristics : BT.709
Matrix coefficients : BT.709

Audio
ID : 2
Format : AAC LC
Format/Info : Advanced Audio Codec Low Complexity
Codec ID : A_AAC-2
Duration : 1 h 43 min
Bit rate : 296 kb/s
Channel(s) : 2 channels
Channel layout : L R
Sampling rate : 48.0 kHz
Frame rate : 46.875 FPS (1024 SPF)
Compression mode : Lossy
Stream size : 219 MiB (16%)
Language : Danish
Default : No
Forced : No

Text
ID : 3
Format : VobSub
Muxing mode : zlib
Codec ID : S_VOBSUB
Codec ID/Info : Picture based subtitle format used on DVDs
Duration : 1 h 40 min
Bit rate : 6 655 b/s
Count of elements : 802
Stream size : 4.79 MiB (0%)
Language : English
Default : Yes
Forced : No

Babette‘s Feast (1987) 720p Criterion BRrip HEVC 10bit AAC 2.0 PoOlLa (375 Mb)

Format : Matroska
Format version : Version 4
File size : 377 MiB
Duration : 1 h 43 min
Overall bit rate : 509 kb/s
Movie name : Babette‘s Feast (1987) Ripped By PoOlLa | Cinemakottaga.ml
Encoded date : UTC 2021-07-18 01:15:21
Writing application : mkvmerge v56.1.0 (‘My Friend’) 64-bit
Writing library : libebml v1.4.2 + libmatroska v1.6.4

Video
ID : 1
Format : HEVC
Format/Info : High Efficiency Video Coding
Format profile : Main [email protected]@Main
Codec ID : V_MPEGH/ISO/HEVC
Duration : 1 h 43 min
Bit rate : 432 kb/s
Width : 1 194 pixels
Height : 720 pixels
Display aspect ratio : 5:3
Frame rate mode : Constant
Frame rate : 23.976 (24000/1001) FPS
Color space : YUV
Chroma subsampling : 4:2:0
Bit depth : 10 bits
Bits/(Pixel*Frame) : 0.021
Stream size : 320 MiB (85%)
Default : Yes
Forced : No
Color range : Limited
Color primaries : BT.709
Transfer characteristics : BT.709
Matrix coefficients : BT.709

Audio
ID : 2
Format : AAC LC SBR
Format/Info : Advanced Audio Codec Low Complexity with Spectral Band Replication
Commercial name : HE-AAC
Format settings : Explicit
Codec ID : A_AAC-2
Duration : 1 h 43 min
Bit rate : 72.0 kb/s
Channel(s) : 2 channels
Channel layout : L R
Sampling rate : 48.0 kHz
Frame rate : 23.438 FPS (2048 SPF)
Compression mode : Lossy
Delay relative to video : 23 ms
Stream size : 53.4 MiB (14%)
Language : Danish
Default : No
Forced : No

Text
ID : 3
Format : VobSub
Muxing mode : zlib
Codec ID : S_VOBSUB
Codec ID/Info : Picture based subtitle format used on DVDs
Duration : 1 h 40 min
Bit rate : 6 655 b/s
Count of elements : 802
Stream size : 4.79 MiB (1%)
Language : English
Default : Yes
Forced : No

Telegram  Download Guide  Donate

Babette’s Feast (1987)
Babette’s Feast (1987)
Babette’s Feast (1987)
Babette’s Feast (1987)
Babette’s Feast (1987)
Babette’s Feast (1987)
Babette’s Feast (1987)
Babette’s Feast (1987)
Original title Babettes gæstebud
IMDb Rating 7.8 18,779 votes
TMDb Rating 7.2 249 votes

Director

Gabriel Axel
Director

Cast

Stéphane Audran isBabette Hersant
Babette Hersant
Bodil Kjer isFilippa
Filippa
Jarl Kulle isGen. Lorens Löwenhielm
Gen. Lorens Löwenhielm
Bibi Andersson isSvensk hofdame
Svensk hofdame
Ghita Nørby isNarrator
Narrator
Thomas Antoni isSvensk Lieutenant
Svensk Lieutenant
Hanne Stensgaard isYoung Filippa
Young Filippa

Similar titles

Pizza (2012)
Frances Ha (2013)
King Liar
Iruvattam Manavatti (2005)
How Old Are You (2014)
Phir Hera Pheri
Odiyan
King Kong (2005)
Kaaryasthan(2010)
Adventures of Omanakuttan (2017)
Bliss (2021)
The Dry (2021)
CinemaKottaga