Video Sources 932 Views

  • Watch trailer
Batman Begins (2005)

Batman Begins (2005)

Evil fears the knight.Jun. 10, 2005United States140 Min.PG-13
Your rating: 0
0 0 votes

Synopsis

Download Batman Begins (2005) Bluray HDR

Download Batman Begins (2005) Bluray HDR

Driven by tragedy, billionaire Bruce Wayne dedicates his life to uncovering and defeating the corruption that plagues his home, Gotham City. Unable to work within the system, he instead creates a new identity, a symbol of fear for the criminal underworld – The Batman.

Batman Begins (2005) 2160p BRrip HEVC HDR10 DDP 5.1 PoOlLa (3.5gb)

Download Batman Begins (2005) 4k Bluray HDR

Format : Matroska
Format version : Version 4
File size : 3.59 GiB
Duration : 2 h 20 min
Overall bit rate : 3 666 kb/s
Encoded date : UTC 2020-05-11 13:35:43
Writing application : ShanaEncoder
Writing library : ShanaEncoder
ErrorDetectionType : Per level 1

Video
ID : 1
Format : HEVC
Format/Info : High Efficiency Video Coding
Format profile : Main [email protected]@Main
HDR format : SMPTE ST 2086, HDR10 compatible
Codec ID : V_MPEGH/ISO/HEVC
Duration : 2 h 20 min
Bit rate : 2 953 kb/s
Width : 3 840 pixels
Height : 1 604 pixels
Display aspect ratio : 2.40:1
Frame rate mode : Constant
Frame rate : 23.976 (24000/1001) FPS
Color space : YUV
Chroma subsampling : 4:2:0 (Type 2)
Bit depth : 10 bits
Bits/(Pixel*Frame) : 0.020
Stream size : 2.89 GiB (81%)
Writing library : x265 3.1.1+1-04b37fdfd2dc:[Windows][GCC 5.4.0][64 bit] 10bit
Default : Yes
Forced : No
Color range : Limited
Color primaries : BT.2020
Transfer characteristics : PQ
Matrix coefficients : BT.2020 non-constant
Mastering display color pri : Display P3
Mastering display luminance : min: 0.0050 cd/m2, max: 4000 cd/m2
Maximum Content Light Level : 992 cd/m2
Maximum Frame-Average Light : 226 cd/m2
Statistics Tags Issue : mkvmerge v19.0.0 (‘Brave Captain’) 64-bit 2018-01-15 18:05:56 / ShanaEncoder 2020-05-11 13:35:43
FromStats_BitRate : 52412666
FromStats_Duration : 02:20:03.896000000
FromStats_FrameCount : 201492
FromStats_StreamSize : 55058824811

Audio
ID : 2
Format : E-AC-3
Format/Info : Enhanced AC-3
Commercial name : Dolby Digital Plus
Codec ID : A_EAC3
Duration : 2 h 20 min
Bit rate mode : Constant
Bit rate : 640 kb/s
Channel(s) : 6 channels
Channel layout : L R C LFE Ls Rs
Sampling rate : 48.0 kHz
Frame rate : 31.250 FPS (1536 SPF)
Bit depth : 24 bits
Compression mode : Lossy
Stream size : 641 MiB (17%)
Language : English
Service kind : Complete Main
Default : Yes
Forced : No

Batman Begins (2005) 1080p UHD BRrip HEVC HDR10 DDP 5.1 PoOlLa (1.4gb)

Download Batman Begins (2005) 1080p Bluray HDR

Format : Matroska
Format version : Version 4
File size : 1.43 GiB
Duration : 2 h 20 min
Overall bit rate : 1 457 kb/s
Encoded date : UTC 2020-05-08 13:01:01
Writing application : ShanaEncoder
Writing library : ShanaEncoder
ErrorDetectionType : Per level 1

Video
ID : 1
Format : HEVC
Format/Info : High Efficiency Video Coding
Format profile : Main [email protected]@High
HDR format : SMPTE ST 2086, HDR10 compatible
Codec ID : V_MPEGH/ISO/HEVC
Duration : 2 h 20 min
Bit rate : 980 kb/s
Width : 1 920 pixels
Height : 810 pixels
Display aspect ratio : 2.40:1
Frame rate mode : Constant
Frame rate : 23.976 (24000/1001) FPS
Color space : YUV
Chroma subsampling : 4:2:0 (Type 2)
Bit depth : 10 bits
Bits/(Pixel*Frame) : 0.026
Stream size : 982 MiB (67%)
Writing library : x265 3.1.1+1-04b37fdfd2dc:[Windows][GCC 5.4.0][64 bit] 10bit
Default : Yes
Forced : No
Color range : Limited
Color primaries : BT.2020
Transfer characteristics : PQ
Matrix coefficients : BT.2020 non-constant
Mastering display color pri : Display P3
Mastering display luminance : min: 0.0050 cd/m2, max: 4000 cd/m2
Maximum Content Light Level : 992 cd/m2
Maximum Frame-Average Light : 226 cd/m2
Statistics Tags Issue : mkvmerge v19.0.0 (‘Brave Captain’) 64-bit 2018-01-15 18:05:56 / ShanaEncoder 2020-05-08 13:01:01
FromStats_BitRate : 52412666
FromStats_Duration : 02:20:03.896000000
FromStats_FrameCount : 201492
FromStats_StreamSize : 55058824811

Audio
ID : 2
Format : E-AC-3
Format/Info : Enhanced AC-3
Commercial name : Dolby Digital Plus
Codec ID : A_EAC3
Duration : 2 h 20 min
Bit rate mode : Constant
Bit rate : 448 kb/s
Channel(s) : 6 channels
Channel layout : L R C LFE Ls Rs
Sampling rate : 48.0 kHz
Frame rate : 31.250 FPS (1536 SPF)
Bit depth : 24 bits
Compression mode : Lossy
Stream size : 449 MiB (31%)
Language : English
Service kind : Complete Main
Default : Yes
Forced : No

Batman Begins (2005) 720p 10bit REMASTERED BluRay 2CH HEVC-HSB (651MB)

Duration : 2h20min

Source : Batman.Begins.2005.REMASTERED.1080p.BluRay.REMUX.AVC.DTS-HD.MA.5.1-FGT

Video Format : HEVC

Format/Info : High Efficiency Video Coding

Width : 1280 pixels

Height : 534 pixels

Bit depth : 10bit

 

Audio Format : Opus

Format/Info : A_Opus

Channel(s) : 2 channels

Language : English

Text Format: PGS



Telegram  Download Guide  Donate

Batman Begins (2005)
Batman Begins (2005)
Batman Begins (2005)
Batman Begins (2005)
Batman Begins (2005)
Batman Begins (2005)
Batman Begins (2005)
Batman Begins (2005)
Batman Begins (2005)
Batman Begins (2005)
Original title Batman Begins
IMDb Rating 8.2 1,311,657 votes
TMDb Rating 7.7 15,331 votes

Director

Cast

Christian Bale isBruce Wayne / Batman
Bruce Wayne / Batman
Liam Neeson isRa's al Ghul / Henri Ducard
Ra's al Ghul / Henri Ducard
Michael Caine isAlfred Pennyworth
Alfred Pennyworth
Katie Holmes isRachel Dawes
Rachel Dawes
Gary Oldman isJames Gordon
James Gordon
Cillian Murphy isDr. Jonathan Crane / Scarecrow
Dr. Jonathan Crane / Scarecrow
Morgan Freeman isLucius Fox
Lucius Fox
Tom Wilkinson isCarmine
Carmine "The Roman" Falcone
Rutger Hauer isWilliam Earle
William Earle
Mark Boone Junior isArnold Flass
Arnold Flass

Similar titles

Pencil(2016)
Perfume: The Story of a Murderer (2006)
Cruella (2021)
Eecha (2012)
Rage (2016)
The Godfather: Part II (1974)
Kakkakuyil
Where Is My Friend’s House?
Lost Girls
Raavanan (2010)
Udta Punjab (2016)
The Dry (2021)
CinemaKottaga