Video Sources 319 Views

  • Watch trailer
Before the Rain (1994)

Before the Rain (1994)

Once You Know The Faces You Will Begin To Understand The StoryJun. 09, 1994Republic of North Macedonia113 Min.N/A
Your rating: 0
6 1 vote

Synopsis

The circularity of violence seen in a story that circles on itself. In Macedonia, during war in Bosnia, Christians hunt an ethnic Albanian girl who may have murdered one of their own. A young monk who’s taken a vow of silence offers her protection. In London, a photographic editor who’s pregnant needs to talk it out with her estranged husband and chooses a toney restaurant.

Before The Rain (1994) 1080p BRrip HEVC 10bit AAC 5.1 PoOlLa (1.5 GB)

Format : Matroska
Format version : Version 4
File size : 1.49 GiB
Duration : 1 h 52 min
Overall bit rate : 1 886 kb/s
Writing application : mkvmerge v59.0.0 (‘Shining Star’) 64-bit
Writing library : libebml v1.4.2 + libmatroska v1.6.4

Video
ID : 1
Format : HEVC
Format/Info : High Efficiency Video Coding
Format profile : Main 10@L4@High
Codec ID : V_MPEGH/ISO/HEVC
Duration : 1 h 52 min
Bit rate : 1 532 kb/s
Width : 1 920 pixels
Height : 1 040 pixels
Display aspect ratio : 1.85:1
Frame rate mode : Constant
Frame rate : 23.976 (24000/1001) FPS
Color space : YUV
Chroma subsampling : 4:2:0
Bit depth : 10 bits
Bits/(Pixel*Frame) : 0.032
Stream size : 1.21 GiB (81%)
Title : Encoded by PoOlLa | cinemakottaga.ml
Color range : Limited
Color primaries : BT.709
Transfer characteristics : BT.709
Matrix coefficients : BT.709

Audio
ID : 2
Format : AAC LC
Format/Info : Advanced Audio Codec Low Complexity
Codec ID : A_AAC-2
Duration : 1 h 52 min
Bit rate : 353 kb/s
Channel(s) : 6 channels
Channel layout : C L R Ls Rs LFE
Sampling rate : 48.0 kHz
Frame rate : 46.875 FPS (1024 SPF)
Compression mode : Lossy
Delay relative to video : 20 ms
Stream size : 284 MiB (19%)
Language : English

Text
ID : 3
Format : UTF-8
Codec ID : S_TEXT/UTF8
Language : English

Before The Rain (1994) 720p Criterion DVDrip HEVC AC3 2.0 PoOlLa (750 Mb)

Download Before the Rain (1994)

Format : Matroska
Format version : Version 4
File size : 750 MiB
Duration : 1 h 53 min
Overall bit rate : 926 kb/s
Writing application : mkvmerge v59.0.0 (‘Shining Star’) 64-bit
Writing library : libebml v1.4.2 + libmatroska v1.6.4 / Lavf58.45.100

Video
ID : 1
Format : HEVC
Format/Info : High Efficiency Video Coding
Format profile : Main@L3.1@Main
Codec ID : V_MPEGH/ISO/HEVC
Duration : 1 h 53 min
Bit rate : 732 kb/s
Width : 1 080 pixels
Height : 720 pixels
Display aspect ratio : 16:9
Frame rate mode : Constant
Frame rate : 23.976 (24000/1001) FPS
Color space : YUV
Chroma subsampling : 4:2:0
Bit depth : 8 bits
Bits/(Pixel*Frame) : 0.039
Stream size : 593 MiB (79%)
Title : Encoded By PoOlLa | cinemakottaga.ml
Color range : Limited
Color primaries : BT.601 NTSC
Transfer characteristics : BT.709
Matrix coefficients : BT.601

Audio
ID : 2
Format : AC-3
Format/Info : Audio Coding 3
Commercial name : Dolby Digital
Codec ID : A_AC3
Duration : 1 h 53 min
Bit rate mode : Constant
Bit rate : 192 kb/s
Channel(s) : 2 channels
Channel layout : L R
Sampling rate : 48.0 kHz
Frame rate : 31.250 FPS (1536 SPF)
Compression mode : Lossy
Stream size : 156 MiB (21%)
Title : Stereo

Text
ID : 3
Format : UTF-8
Language : English

Telegram  Download Guide  Donate

Before the Rain (1994)
Before the Rain (1994)
Before the Rain (1994)
Before the Rain (1994)
Original title Пред дождот
IMDb Rating 8 13,855 votes
TMDb Rating 7.6 86 votes

Similar titles

Falling (2020)
King Richard (2021)
Four Weddings and a Funeral (1994)
Shadow (2018)
Correspondence (2016)
Beautiful (2011)
Vinnaithaandi Varuvaayaa (2010)
The Disciple
The Crazy Stranger (1997)
Close to Eden (1991)
Martyrs (2008)
Yuvam (2021)
CinemaKottaga