Video Sources 608 Views

  • Watch trailer
Benedetta (2021)

Benedetta (2021)

Jul. 09, 2021France131 Min.N/A
Your rating: 0
3 1 vote

Synopsis

In the late 17th century, with plague ravaging the land, Benedetta Carlini joins the convent in Pescia, Tuscany, as a novice. Capable from an early age of performing miracles, Benedetta’s impact on life in the community is immediate and momentous.

Benedetta (2021) FRENCH 1080p 10bit BluRay 6CH HEVC HSB (1.23 GB)

Source …: Benedetta.2021.FRENCH.1080p.BLURAY.REMUX.AVC.DTS.HDMA.5.1-Shamir
Runtime ……: 2h 11min
Video ……..: HEVC | 1920 x 804 | 10bit
Audio ……..:. 6CH HE-AAC French
Subs …………: English

Benedetta 2021 FRENCH 720p 10bit BluRay 2CH HEVC HSB (572 MB)

Source …: Benedetta.2021.FRENCH.1080p.BLURAY.REMUX.AVC.DTS.HDMA.5.1-Shamir
Runtime ……: 2h 11min
Video ……..: HEVC | 1280 x 536 | 10bit
Audio ……..:. 2CH HE-AAC French
Subs …………: English

Benedetta (2021) 720p WEB-DL HEVC 10bit AAC 2.0 PoOlLa (560 MB)

Format : Matroska
Format version : Version 4
File size : 531 MiB
Duration : 2 h 5 min
Overall bit rate : 590 kb/s
Writing application : mkvmerge v59.0.0 (‘Shining Star’) 64-bit
Writing library : libebml v1.4.2 + libmatroska v1.6.4

Video
ID : 1
Format : HEVC
Format/Info : High Efficiency Video Coding
Format profile : Main 10@L3.1@Main
Codec ID : V_MPEGH/ISO/HEVC
Duration : 2 h 5 min
Bit rate : 522 kb/s
Width : 1 280 pixels
Height : 536 pixels
Display aspect ratio : 2.40:1
Frame rate mode : Constant
Frame rate : 25.000 FPS
Color space : YUV
Chroma subsampling : 4:2:0
Bit depth : 10 bits
Bits/(Pixel*Frame) : 0.030
Stream size : 470 MiB (89%)
Title : Encoded by PoOlLa | cinemakottaga.ml
Color range : Limited
Color primaries : BT.709
Transfer characteristics : BT.709
Matrix coefficients : BT.709

Audio
ID : 2
Format : AAC LC SBR
Format/Info : Advanced Audio Codec Low Complexity with Spectral Band Replication
Commercial name : HE-AAC
Format settings : Explicit
Codec ID : A_AAC-2
Duration : 2 h 5 min
Bit rate : 66.2 kb/s
Channel(s) : 2 channels
Channel layout : L R
Sampling rate : 48.0 kHz
Frame rate : 23.438 FPS (2048 SPF)
Compression mode : Lossy
Delay relative to video : 40 ms
Stream size : 59.2 MiB (11%)
Language : French

Text
ID : 3
Format : UTF-8
Codec ID : S_TEXT/UTF8
Language : English

Telegram  Download Guide  Donate

Benedetta (2021)
Benedetta (2021)
Benedetta (2021)
Benedetta (2021)
Benedetta (2021)
Benedetta (2021)
Benedetta (2021)
Benedetta (2021)
Benedetta (2021)
Benedetta (2021)
Original title Benedetta
IMDb Rating 6.7 2,200 votes
TMDb Rating 6.7 130 votes

Director

Cast

Virginie Efira isSœur Benedetta Carlini
Sœur Benedetta Carlini
Charlotte Rampling isMère Felicita
Mère Felicita
Daphne Patakia isBartolomea
Bartolomea
Olivier Rabourdin isAlfonso Cecchi
Alfonso Cecchi
Louise Chevillotte isSœur Christina
Sœur Christina
Hervé Pierre isPaolo Ricordati
Paolo Ricordati
Clotilde Courau isMidea Carlini
Midea Carlini
David Clavel isGiuliano Carlini
Giuliano Carlini
Guilaine Londez isSoeur Jacopa
Soeur Jacopa

Similar titles

Munthirivallikal Thalirkkumbol (2017)
Lucifer (2019)
For a Cop’s Hide
Kudumbakodathi
Gomorrah (2008)
Delhi-6 (2009)
1492: Conquest of Paradise (1992)
Jersey
Fanaa
Josée (2020)
Black Book (2006)
The Housekeeper (2002)
CinemaKottaga