Video Sources 439 Views

  • Watch trailer
Bhaag Milkha Bhaag (2013)

Bhaag Milkha Bhaag (2013)

Now you will see his Real Story.Jul. 12, 2013India186 Min.N/A
Your rating: 0
1 1 vote

Synopsis

The true story of the “Flying Sikh” world champion runner and Olympian Milkha Singh who overcame the massacre of his family, civil war during the India-Pakistan partition, and homelessness to become one of India’s most iconic athletes.

Bhaag Milkha Bhaag (2013) 1080p BRrip HEVC 10bit AC 3 5.1 PoOlLa (2.7 GB)

Format : Matroska
Format version : Version 4
File size : 2.76 GiB
Duration : 3 h 6 min
Overall bit rate : 2 122 kb/s
Movie name : Encoded By PoOlLa
Encoded date : UTC 2020-02-21 03:19:47
Writing application : mkvmerge v39.0.0 (‘In The Waiting Line’) 64-bit
Writing library : libebml v1.3.9 + libmatroska v1.5.2

Video
ID : 1
Format : HEVC
Format/Info : High Efficiency Video Coding
Format profile : Main [email protected]@High
Codec ID : V_MPEGH/ISO/HEVC
Duration : 3 h 6 min
Bit rate : 1 477 kb/s
Width : 1 920 pixels
Height : 812 pixels
Display aspect ratio : 2.35:1
Frame rate mode : Constant
Frame rate : 24.000 FPS
Color space : YUV
Chroma subsampling : 4:2:0
Bit depth : 10 bits
Bits/(Pixel*Frame) : 0.039
Stream size : 1.92 GiB (70%)
Writing library : x265 3.2+38-fdbd4e4a2aff:[Windows][MSVC 1924][64 bit] 10bit
Default : Yes
Forced : No
Color range : Limited
Color primaries : BT.709
Transfer characteristics : BT.709
Matrix coefficients : BT.709

Audio
ID : 2
Format : AC-3
Format/Info : Audio Coding 3
Commercial name : Dolby Digital
Codec ID : A_AC3
Duration : 3 h 6 min
Bit rate mode : Constant
Bit rate : 640 kb/s
Channel(s) : 6 channels
Channel layout : L R C LFE Ls Rs
Sampling rate : 48.0 kHz
Frame rate : 31.250 FPS (1536 SPF)
Compression mode : Lossy
Stream size : 853 MiB (30%)
Language : Hindi
Service kind : Complete Main
Default : No
Forced : No

Text
ID : 3
Format : VobSub
Muxing mode : zlib
Codec ID : S_VOBSUB
Codec ID/Info : Picture based subtitle format used on DVDs
Duration : 3 h 1 min
Bit rate : 4 608 b/s
Count of elements : 1535
Stream size : 5.98 MiB (0%)
Language : English
Default : No
Forced : No

Bhaag Milkha Bhaag (2013) 720p BRrip HEVC 10bit AAC 5.1 PoOlLa (1.5 GB)

Format : Matroska
Format version : Version 4
File size : 1.49 GiB
Duration : 3 h 6 min
Overall bit rate : 1 145 kb/s
Movie name : Bhaag Milkha Bhaag (2013 720p BRrip HEVC 10bit AAC 5.1 PoOlLa
Encoded date : UTC 2021-08-01 02:38:35
Writing application : mkvmerge v56.1.0 (‘My Friend’) 64-bit
Writing library : libebml v1.4.2 + libmatroska v1.6.4

Video
ID : 1
Format : HEVC
Format/Info : High Efficiency Video Coding
Format profile : Main [email protected]@High
Codec ID : V_MPEGH/ISO/HEVC
Duration : 3 h 6 min
Bit rate : 935 kb/s
Width : 1 280 pixels
Height : 542 pixels
Display aspect ratio : 2.35:1
Frame rate mode : Constant
Frame rate : 24.000 FPS
Color space : YUV
Chroma subsampling : 4:2:0
Bit depth : 10 bits
Bits/(Pixel*Frame) : 0.056
Stream size : 1.22 GiB (82%)
Default : Yes
Forced : No
Color range : Limited
Color primaries : BT.709
Transfer characteristics : BT.709
Matrix coefficients : BT.709

Audio
ID : 2
Format : AAC LC SBR
Format/Info : Advanced Audio Codec Low Complexity with Spectral Band Replication
Commercial name : HE-AAC
Format settings : NBC
Codec ID : A_AAC-5
Duration : 3 h 6 min
Bit rate : 204 kb/s
Channel(s) : 6 channels
Channel layout : C L R Ls Rs LFE
Sampling rate : 48.0 kHz
Frame rate : 23.438 FPS (2048 SPF)
Compression mode : Lossy
Delay relative to video : -105 ms
Stream size : 272 MiB (18%)
Language : Hindi
Default : Yes
Forced : No

Text
ID : 3
Format : VobSub
Muxing mode : zlib
Codec ID : S_VOBSUB
Codec ID/Info : Picture based subtitle format used on DVDs
Duration : 3 h 1 min
Bit rate : 4 608 b/s
Count of elements : 1535
Stream size : 5.98 MiB (0%)
Language : English
Default : Yes
Forced : No

Bhaag Milkha Bhaag (2013) 720p BRrip HEVC 10bit AAC 2.0 PoOlLa (1.1 GB)

Format : Matroska
Format version : Version 4
File size : 1.12 GiB
Duration : 3 h 6 min
Overall bit rate : 857 kb/s
Movie name : Bhaag Milkha Bhaag (2013 720p BRrip HEVC 10bit AAC 2.0 PoOlLa
Encoded date : UTC 2021-08-01 02:37:03
Writing application : mkvmerge v56.1.0 (‘My Friend’) 64-bit
Writing library : libebml v1.4.2 + libmatroska v1.6.4

Video
ID : 1
Format : HEVC
Format/Info : High Efficiency Video Coding
Format profile : Main [email protected]@Main
Codec ID : V_MPEGH/ISO/HEVC
Duration : 3 h 6 min
Width : 1 280 pixels
Height : 542 pixels
Display aspect ratio : 2.35:1
Frame rate mode : Constant
Frame rate : 24.000 FPS
Color space : YUV
Chroma subsampling : 4:2:0
Bit depth : 10 bits
Default : Yes
Forced : No
Color range : Limited
Color primaries : BT.709
Transfer characteristics : BT.709
Matrix coefficients : BT.709

Audio
ID : 2
Format : AAC LC SBR
Format/Info : Advanced Audio Codec Low Complexity with Spectral Band Replication
Commercial name : HE-AAC
Format settings : NBC
Codec ID : A_AAC-5
Duration : 3 h 6 min
Channel(s) : 2 channels
Channel layout : L R
Sampling rate : 48.0 kHz
Frame rate : 23.438 FPS (2048 SPF)
Compression mode : Lossy
Delay relative to video : -105 ms
Language : Hindi
Default : Yes
Forced : No

Text
ID : 3
Format : VobSub
Muxing mode : zlib
Codec ID : S_VOBSUB
Codec ID/Info : Picture based subtitle format used on DVDs
Language : English
Default : Yes
Forced : No

Telegram  Download Guide  Donate

Bhaag Milkha Bhaag (2013)
Bhaag Milkha Bhaag (2013)
Original title भाग मिल्खा भाग
IMDb Rating 8.2 63,355 votes
TMDb Rating 7.5 167 votes

Director

Cast

Farhan Akhtar isMilkha Singh
Milkha Singh
Divya Dutta isIshri Kaur
Ishri Kaur
Pavan Malhotra isHawaldar (Constable) Gurudev Singh
Hawaldar (Constable) Gurudev Singh
Prakash Raj isArmy Officer
Army Officer
Yograj Singh isRanveer Singh
Ranveer Singh
Art Malik isSampooran Singh
Sampooran Singh
Herry Tangiri isTaran Singh
Taran Singh
Meesha Shafi isPerizaad
Perizaad

Similar titles

Pokkiri Raja(2010)
The Lincoln Lawyer (2011)
Silk Road (2021)
Night in Paradise (2020)
Oru Vadakkan Selfie (2015)
Virumandi (2004)
The Dry (2021)
Bairavaa (2017)
Chaos Walking (2021)
99 Songs (2021)
Born a Champion (2021)
Il Divo (2008)
CinemaKottaga