Video Sources 941 Views

  • Watch trailer
Bhramam (2021)

Bhramam (2021)

Oct. 07, 2021India152 Min.N/A
Your rating: 0
8 1 vote

Synopsis

A pianist pretends to be blind for inspiration, witnesses a murder. He suddenly finds himself in a blind spot with the victim’s wife, the murderer. During this ordeal, he loses his eyesight for real. Will his girlfriend believe him?

Bhramam (2021) 1080p AMZN WEB-DL 10bit AV1 Opus 5.1-SMK (875 MB)

Format : Matroska
Format version : Version 4
File size : 879 MiB
Duration : 2 h 32 min
Overall bit rate : 807 kb/s
Writing library : libebml v1.4.2 + libmatroska v1.6.4

Video
ID : 1
Format : AV1
Format/Info : AOMedia Video 1
Format profile : Main@L4.0
Codec ID : V_AV1
Duration : 2 h 32 min
Bit rate : 598 kb/s
Width : 1 920 pixels
Height : 816 pixels
Display aspect ratio : 2.35:1
Frame rate mode : Variable
Frame rate : 24.000 FPS
Color space : YUV
Chroma subsampling : 4:2:0
Bit depth : 10 bits
Bits/(Pixel*Frame) : 0.016
Stream size : 651 MiB (74%)
Color range : Limited
Color primaries : BT.709
Transfer characteristics : BT.709
Matrix coefficients : BT.709

Audio
ID : 2
Format : Opus
Codec ID : A_OPUS
Duration : 2 h 32 min
Bit rate : 206 kb/s
Channel(s) : 6 channels
Channel layout : L R C Lb Rb LFE
Sampling rate : 48.0 kHz
Frame rate : 50.000 FPS (960 SPF)
Compression mode : Lossy
Stream size : 224 MiB (26%)
Writing library : Lavc59.3.102 libopus

Text #1
ID : 3
Format : UTF-8
Codec ID : S_TEXT/UTF8
Codec ID/Info : UTF-8 Plain Text
Duration : 2 h 25 min
Bit rate : 51 b/s
Count of elements : 2114
Stream size : 55.0 KiB (0%)
Title : English [SDH]
Language : English

Text #2
ID : 4
Format : UTF-8
Codec ID : S_TEXT/UTF8
Codec ID/Info : UTF-8 Plain Text
Duration : 2 h 25 min
Bit rate : 51 b/s
Count of elements : 2101
Stream size : 54.7 KiB (0%)
Title : English

Bhramam (2021) Malayalam 720p 10bit AMZN WEB-DL 2CH HEVC MPEG7 (745MB)

Source …: Bhramam.2021.1080p.AMZN.WEB.DL.H264.DDP5.1-DDH

Format : Matroska
Format version : Version 4
File size : 745 MiB
Duration : 2 h 32 min
Overall bit rate : 684 kb/s
Movie name : MPEG7 | Bhramam.2021.Mal.720p.10bit.AMZN.WEB-DL.2CH.HEVC-MPEG7 | www.cinemakottaga.ml
Encoded date : UTC 2021-10-07 03:51:15
Writing application : mkvmerge v61.0.0 (‘So’) 64-bit
Writing library : libebml v1.4.2 + libmatroska v1.6.4
Cover : Yes
Attachments : cover.jpg

Video
ID : 1
Format : HEVC
Format/Info : High Efficiency Video Coding
Format profile : Main 10@L3.1@Main
Codec ID : V_MPEGH/ISO/HEVC
Duration : 2 h 32 min
Bit rate : 610 kb/s
Width : 1 280 pixels
Height : 544 pixels
Display aspect ratio : 2.35:1
Frame rate mode : Variable
Frame rate : 24.000 FPS
Color space : YUV
Chroma subsampling : 4:2:0
Bit depth : 10 bits
Bits/(Pixel*Frame) : 0.036
Stream size : 664 MiB (89%)
Title : MPEG7 | www.cinemakottaga.ml
Default : Yes
Forced : No
Color range : Limited
Color primaries : BT.709
Transfer characteristics : BT.709
Matrix coefficients : BT.709

Audio
ID : 2
Format : AAC LC SBR
Format/Info : Advanced Audio Codec Low Complexity with Spectral Band Replication
Commercial name : HE-AAC
Format settings : NBC
Codec ID : A_AAC-5
Duration : 2 h 32 min
Bit rate : 72.0 kb/s
Channel(s) : 2 channels
Channel layout : L R
Sampling rate : 48.0 kHz
Frame rate : 23.438 FPS (2048 SPF)
Compression mode : Lossy
Stream size : 78.4 MiB (11%)
Title : MPEG7 | www.cinemakottaga.ml
Language : Malayalam
Default : Yes
Forced : No

Text #1
ID : 3
Format : UTF-8
Codec ID : S_TEXT/UTF8
Codec ID/Info : UTF-8 Plain Text
Duration : 2 h 26 min
Bit rate : 51 b/s
Count of elements : 2116
Stream size : 55.1 KiB (0%)
Title : MPEG7 | www.cinemakottaga.ml
Language : English
Default : Yes
Forced : No

Text #2
ID : 4
Format : UTF-8
Codec ID : S_TEXT/UTF8
Codec ID/Info : UTF-8 Plain Text
Duration : 2 h 26 min
Bit rate : 51 b/s
Count of elements : 2135
Stream size : 55.3 KiB (0%)
Title : MPEG7 | www.cinemakottaga.ml
Language : English
Default : Yes
Forced : No

 

Download

Password – f**kbots

Telegram  Download Guide  Donate

Original title ഭ്രമം
IMDb Rating N/A N/A votes

Director

Cast

Unni Mukundan isS.I. Dinesh
S.I. Dinesh
Shankar isUday Kumar / Uday
Uday Kumar / Uday
Sudheer Karamana isConstable Soman Nair
Constable Soman Nair
Jagadish isDr. Swamy
Dr. Swamy
Ananya isSwapna
Swapna
Shine Tom Chacko isA stag hunter
A stag hunter

Similar titles

Automata (2014)
Jil Jung Juk (2016)
Stillwater (2021)
Sarkar (2018)
Last Night in Soho (2021)
Jar City (2006)
Vettaiyaadu Vilaiyaadu
Omar (2013)
The Mad Women’s Ball (2021)
Candyman (2021)
Thuppakki (2012)
No Smoking (2007)
CinemaKottaga