Video Sources 3334 Views

  • Watch trailer
Black Widow (2021)

Black Widow (2021)

She's Done Running From Her Past.Jul. 07, 2021United States134 Min.PG-13
Your rating: 0
0 0 votes

Synopsis

Natasha Romanoff, also known as Black Widow, confronts the darker parts of her ledger when a dangerous conspiracy with ties to her past arises. Pursued by a force that will stop at nothing to bring her down, Natasha must deal with her history as a spy and the broken relationships left in her wake long before she became an Avenger.

Black Widow (2021) 1080p 10bit BluRay 8CH HEVC HSB (1.72 GB)

Source …: Black.Widow.2021.1080p.BluRay.REMUX.AVC.DTS-HD.MA.7.1-SNAHP
Runtime ……: 2h 13min
Video ……..: HEVC | 1920 x 804 | 10bit
Audio ……..: 8CH HE-AAC English
Subs …………: English

TG GD

Black Widow (2021) 720p 10bit BluRay 2CH HEVC HSB (872 MB)

Source …: Black.Widow.2021.1080p.BluRay.REMUX.AVC.DTS-HD.MA.7.1-SNAHP
Runtime ……: 2h 13min
Video ……..: HEVC | 1280 x 536 | 10bit
Audio ……..: 2CH HE-AAC English
Subs …………: English

TG GD

Black Widow (2021) 1080p DSNP WEB-DL HEVC 10bit DDP 5.1 Atmos PoOlLa (2.9 GB)

Format : Matroska
Format version : Version 4
File size : 2.91 GiB
Duration : 2 h 13 min
Overall bit rate : 3 117 kb/s
Writing application : Lavf58.76.100
Writing library : Lavf58.76.100
Comment : Ripped By PoOlLa @ cinemakottaga.ml
ErrorDetectionType : Per level 1

Video
ID : 1
Format : HEVC
Format/Info : High Efficiency Video Coding
Format profile : Main [email protected]@Main
Codec ID : V_MPEGH/ISO/HEVC
Duration : 2 h 13 min
Bit rate : 2 287 kb/s
Width : 1 920 pixels
Height : 804 pixels
Display aspect ratio : 2.40:1
Frame rate mode : Constant
Frame rate : 23.976 (24000/1001) FPS
Color space : YUV
Chroma subsampling : 4:2:0
Bit depth : 10 bits
Bits/(Pixel*Frame) : 0.062
Stream size : 2.14 GiB (73%)
Writing library : Lavc58.134.100 hevc_nvenc
Default : Yes
Forced : No
Color range : Limited
Color primaries : BT.709
Transfer characteristics : BT.709
Matrix coefficients : BT.709

Audio
ID : 2
Format : E-AC-3 JOC
Format/Info : Enhanced AC-3 with Joint Object Coding
Commercial name : Dolby Digital Plus with Dolby Atmos
Codec ID : A_EAC3
Duration : 2 h 13 min
Bit rate mode : Constant
Bit rate : 768 kb/s
Channel(s) : 6 channels
Channel layout : L R C LFE Ls Rs
Sampling rate : 48.0 kHz
Frame rate : 31.250 FPS (1536 SPF)
Bit depth : 32 bits
Compression mode : Lossy
Stream size : 735 MiB (25%)
Service kind : Complete Main
Default : Yes
Forced : No
Complexity index : 16
Number of dynamic objects : 15
Bed channel count : 1 channel
Bed channel configuration : LFE

Text
ID : 3
Format : UTF-8
Codec ID : S_TEXT/UTF8
Codec ID/Info : UTF-8 Plain Text
Duration : 2 h 13 min
Default : Yes
Forced : No

Black Widow (2021) 1080p DSNP WEB-DL HEVC 10bit AAC 5.1 PoOlLa (1.7 GB)

Format : Matroska
Format version : Version 4
File size : 1.69 GiB
Duration : 2 h 13 min
Overall bit rate : 1 809 kb/s
Writing application : Lavf58.76.100
Writing library : Lavf58.76.100
Comment : Ripped By PoOlLa @ cinemakottaga.ml
ErrorDetectionType : Per level 1

Video
ID : 1
Format : HEVC
Format/Info : High Efficiency Video Coding
Format profile : Main [email protected]@Main
Codec ID : V_MPEGH/ISO/HEVC
Duration : 2 h 13 min
Width : 1 920 pixels
Height : 804 pixels
Display aspect ratio : 2.40:1
Frame rate mode : Constant
Frame rate : 23.976 (24000/1001) FPS
Color space : YUV
Chroma subsampling : 4:2:0
Bit depth : 10 bits
Writing library : Lavc58.134.100 hevc_nvenc
Default : Yes
Forced : No
Color range : Limited
Color primaries : BT.709
Transfer characteristics : BT.709
Matrix coefficients : BT.709

Audio
ID : 2
Format : AAC LC
Format/Info : Advanced Audio Codec Low Complexity
Codec ID : A_AAC-2
Duration : 2 h 13 min
Channel(s) : 6 channels
Channel layout : C L R Ls Rs LFE
Sampling rate : 48.0 kHz
Frame rate : 46.875 FPS (1024 SPF)
Compression mode : Lossy
Delay relative to video : -43 ms
Writing library : Lavc58.134.100 libfdk_aac
Default : Yes
Forced : No

Text
ID : 3
Format : UTF-8
Codec ID : S_TEXT/UTF8
Codec ID/Info : UTF-8 Plain Text
Duration : 2 h 13 min
Default : Yes
Forced : No

Black Widow (2021) 720p 10bit DSNP WEB-DL 2CH HEVC HSB (642 MB)

Source …: Black.Widow.2021.1080p.DSNP.WEB-DL.DDP5.1.Atmos.H.264-TBD
Runtime ……: 2h 13min
Video ……..: HEVC | 1280 x 536 | 10bit
Audio ……..: 2CH HE-AAC English
Subs …………: English

TG GD

Black Widow (2021) 1080p 10bit DSNP WEB-DL 6CH HEVC HSB (1.23 GB)

Source …: Black.Widow.2021.1080p.DSNP.WEB-DL.DDP5.1.Atmos.H.264-TBD
Runtime ……: 2h 13min
Video ……..: HEVC | 1920 x 804 | 10bit
Audio ……..: 6CH HE-AAC English
Subs …………: English

TG GD

Black Widow (2021) 1080p 10bit BluRay x265 6CH HEVC MPEG7 (1.3GB)

Source …: Black.Widow.2021.1080p.BluRay.REMUX.AVC.DTS-HD.MA.7.1-SNAHP

Format : Matroska
Format version : Version 4
File size : 1.30 GiB
Duration : 2 h 13 min
Overall bit rate : 1 391 kb/s
Movie name : MPEG7 | Black.Widow.2021.1080p.10bit.BluRay.x265.6CH.HEVC-MPEG7 – www.cinemakottaga.ml
Encoded date : UTC 2021-09-06 13:24:24
Writing application : mkvmerge v61.0.0 (‘So’) 64-bit
Writing library : libebml v1.4.2 + libmatroska v1.6.4
Cover : Yes
Attachments : cover.jpg

Video
ID : 1
Format : HEVC
Format/Info : High Efficiency Video Coding
Format profile : Main [email protected]@Main
Codec ID : V_MPEGH/ISO/HEVC
Duration : 2 h 13 min
Bit rate : 1 172 kb/s
Width : 1 920 pixels
Height : 800 pixels
Display aspect ratio : 2.40:1
Frame rate mode : Constant
Frame rate : 23.976 (24000/1001) FPS
Color space : YUV
Chroma subsampling : 4:2:0
Bit depth : 10 bits
Bits/(Pixel*Frame) : 0.032
Stream size : 1.10 GiB (84%)
Title : MPEG7 | www.cinemakottaga.ml
Default : Yes
Forced : No
Color range : Limited
Color primaries : BT.709
Transfer characteristics : BT.709
Matrix coefficients : BT.709

Audio
ID : 2
Format : AAC LC SBR
Format/Info : Advanced Audio Codec Low Complexity with Spectral Band Replication
Commercial name : HE-AAC
Format settings : NBC
Codec ID : A_AAC-5
Duration : 2 h 13 min
Bit rate : 206 kb/s
Channel(s) : 6 channels
Channel layout : C L R Ls Rs LFE
Sampling rate : 48.0 kHz
Frame rate : 23.438 FPS (2048 SPF)
Compression mode : Lossy
Stream size : 197 MiB (15%)
Title : MPEG7 | www.cinemakottaga.ml
Language : English
Default : Yes
Forced : No

Text
ID : 3
Format : PGS
Muxing mode : zlib
Codec ID : S_HDMV/PGS
Codec ID/Info : Picture based subtitle format used on BDs/HD-DVDs
Duration : 2 h 13 min
Bit rate : 32.6 kb/s
Count of elements : 3294
Stream size : 31.1 MiB (2%)
Title : MPEG7 | www.cinemakottaga.ml
Language : English
Default : No
Forced : No

Menu
00:00:00.000 : Chapter 1
00:04:55.295 : Chapter 2
00:13:10.206 : Chapter 3
00:16:24.692 : Chapter 4
00:18:41.995 : Chapter 5
00:21:41.758 : Chapter 6
00:25:40.914 : Chapter 7
00:30:06.471 : Chapter 8
00:39:05.593 : Chapter 9
00:44:46.475 : Chapter 10
00:53:26.119 : Chapter 11
01:01:38.278 : Chapter 12
01:07:46.395 : Chapter 13
01:11:40.796 : Chapter 14
01:17:48.914 : Chapter 15
01:27:19.359 : Chapter 16
01:33:33.566 : Chapter 17
01:37:37.601 : Chapter 18
01:41:18.781 : Chapter 19
01:45:37.998 : Chapter 20
01:51:41.778 : Chapter 21
01:57:09.230 : Chapter 22
02:01:59.812 : Chapter 23
02:04:25.583 : Chapter 24

 

Telegram  Download Guide  Donate

Black Widow (2021)
Black Widow (2021)
Black Widow (2021)
Black Widow (2021)
Black Widow (2021)
Black Widow (2021)
Black Widow (2021)
Black Widow (2021)
Black Widow (2021)
Black Widow (2021)
Original title Black Widow
IMDb Rating 6.8 1,477 votes
TMDb Rating 7.4 140 votes

Director

Cast

Scarlett Johansson isNatasha Romanoff / Black Widow
Natasha Romanoff / Black Widow
Florence Pugh isYelena Belova
Yelena Belova
David Harbour isAlexei / Red Guardian
Alexei / Red Guardian
William Hurt isSecretary Thaddeus 'Thunderbolt' Ross
Secretary Thaddeus 'Thunderbolt' Ross
Simona Zivkovska isRed Room Widow
Red Room Widow
Yolanda Lynes isRed Room Widow
Red Room Widow
Jade Ma isRed Room Widow
Red Room Widow

Similar titles

Fear of Rain (2021)
Run Baby Run (2012)
School’s Out Forever (2021)
Adventures of Omanakuttan (2017)
Lux Æterna (2019)
Fast Five (2011)
Monster Hunter (2020)
Kong: Skull Island (2017)
Nobody (2021)
Theri (2016)
Trumbo (2015)
Cold Mountain (2003)
CinemaKottaga