Champ (2011)

Champ (2011)

Sep. 07, 2011South Korea133 Min.N/A
Your rating: 0
8 1 vote

Synopsis

A former jockey who became blind after losing his wife in an accident gets a second chance with the help of his daughter and an injured horse.

Champ (2011) 1080p BRrip HEVC 10bit AAC 5.1 PoOlLa (1.6 GB)

Format : Matroska
Format version : Version 4
File size : 1.62 GiB
Duration : 2 h 13 min
Overall bit rate : 1 736 kb/s
Writing application : mkvmerge v59.0.0 (‘Shining Star’) 64-bit
Writing library : libebml v1.4.2 + libmatroska v1.6.4

Video
ID : 1
Format : HEVC
Format/Info : High Efficiency Video Coding
Format profile : Main 10@L4@High
Codec ID : V_MPEGH/ISO/HEVC
Duration : 2 h 13 min
Bit rate : 1 448 kb/s
Width : 1 920 pixels
Height : 816 pixels
Display aspect ratio : 2.35:1
Frame rate mode : Constant
Frame rate : 23.976 (24000/1001) FPS
Color space : YUV
Chroma subsampling : 4:2:0
Bit depth : 10 bits
Bits/(Pixel*Frame) : 0.039
Stream size : 1.35 GiB (83%)
Title : Encoded by PoOlLa | cinemakottaga.ml
Color range : Limited
Color primaries : BT.709
Transfer characteristics : BT.709
Matrix coefficients : BT.709

Audio
ID : 2
Format : AAC LC
Format/Info : Advanced Audio Codec Low Complexity
Codec ID : A_AAC-2
Duration : 2 h 13 min
Bit rate : 288 kb/s
Channel(s) : 6 channels
Channel layout : C L R Ls Rs LFE
Sampling rate : 48.0 kHz
Frame rate : 46.875 FPS (1024 SPF)
Compression mode : Lossy
Delay relative to video : 20 ms
Stream size : 274 MiB (16%)
Language : Korean

Text
ID : 3
Format : UTF-8
Codec ID : S_TEXT/UTF8
Language : English

Champ (2011) 720p BRrip HEVC 10bit AAC 2.0 PoOlLa (720 MB)

Format : Matroska
Format version : Version 4
File size : 723 MiB
Duration : 2 h 13 min
Overall bit rate : 755 kb/s
Writing application : mkvmerge v59.0.0 (‘Shining Star’) 64-bit
Writing library : libebml v1.4.2 + libmatroska v1.6.4

Video
ID : 1
Format : HEVC
Format/Info : High Efficiency Video Coding
Format profile : Main 10@L3.1@Main
Codec ID : V_MPEGH/ISO/HEVC
Duration : 2 h 13 min
Bit rate : 688 kb/s
Width : 1 280 pixels
Height : 544 pixels
Display aspect ratio : 2.35:1
Frame rate mode : Constant
Frame rate : 23.976 (24000/1001) FPS
Color space : YUV
Chroma subsampling : 4:2:0
Bit depth : 10 bits
Bits/(Pixel*Frame) : 0.041
Stream size : 658 MiB (91%)
Title : Encoded by PoOlLa | cinemakottaga.ml
Color range : Limited
Color primaries : BT.709
Transfer characteristics : BT.709
Matrix coefficients : BT.709

Audio
ID : 2
Format : AAC LC SBR
Format/Info : Advanced Audio Codec Low Complexity with Spectral Band Replication
Commercial name : HE-AAC
Format settings : Explicit
Codec ID : A_AAC-2
Duration : 2 h 13 min
Bit rate : 66.2 kb/s
Channel(s) : 2 channels
Channel layout : L R
Sampling rate : 48.0 kHz
Frame rate : 23.438 FPS (2048 SPF)
Compression mode : Lossy
Delay relative to video : 40 ms
Stream size : 63.0 MiB (9%)
Language : Korean

Text
ID : 3
Format : UTF-8
Codec ID : S_TEXT/UTF8
Language : English

Telegram  Download Guide  Donate

Champ (2011)
Original title 챔프
IMDb Rating 6.4 146 votes
TMDb Rating 6 6 votes

Director

Cast

Cha Tae-hyun isSeung-ho
Seung-ho
Su-jeong Kim isYe-seung
Ye-seung
Yu Oh-seong isTrainer Yoon
Trainer Yoon
Park Ha-sun isYoon-Hee
Yoon-Hee
Ahn Seo-hyun isLittle girl
Little girl

Similar titles

Skater Girl (2021)
T. P. Balagopalan M.A. (1986)
Drunk Bus (2021)
Rurouni Kenshin: The Final (2021)
Bad Luck Banging or Loony Porn (2021)
Kilometers and Kilometers (2020)
Desire (2011)
Dune (2021)
Farewell My Concubine (1993)
Hera Pheri
Finals
Enemy at the Gates (2001)
CinemaKottaga