Video Sources 275 Views

  • Watch trailer
City of God (2002)

City of God (2002)

If you run, you're dead... if you stay, you're dead again.Feb. 05, 2002Brazil130 Min.R
Your rating: 0
0 0 votes

Synopsis

In the slums of Rio, two kids’ paths diverge as one struggles to become a photographer and the other a kingpin.

City of God (2002) 1080p BRrip HEVC DDP 5.1 PoOlLa (3.6 Gb)

Format : Matroska
Format version : Version 4
File size : 3.62 GiB
Duration : 2 h 9 min
Overall bit rate : 4 008 kb/s
Movie name : City Of God (2002) Ripped By PoOlLa @ cinemakottaga.ml
Encoded date : UTC 2021-07-19 12:54:33
Writing application : mkvmerge v56.1.0 (‘My Friend’) 64-bit
Writing library : libebml v1.4.2 + libmatroska v1.6.4

Video
ID : 1
Format : HEVC
Format/Info : High Efficiency Video Coding
Format profile : [email protected]@Main
Codec ID : V_MPEGH/ISO/HEVC
Duration : 2 h 9 min
Bit rate : 3 360 kb/s
Width : 1 920 pixels
Height : 1 036 pixels
Display aspect ratio : 1.85:1
Frame rate mode : Constant
Frame rate : 23.976 (24000/1001) FPS
Color space : YUV
Chroma subsampling : 4:2:0
Bit depth : 8 bits
Bits/(Pixel*Frame) : 0.070
Stream size : 3.04 GiB (84%)
Default : Yes
Forced : No
Color range : Limited
Color primaries : BT.709
Transfer characteristics : BT.709
Matrix coefficients : BT.709

Audio
ID : 2
Format : E-AC-3
Format/Info : Enhanced AC-3
Commercial name : Dolby Digital Plus
Codec ID : A_EAC3
Duration : 2 h 9 min
Bit rate mode : Constant
Bit rate : 640 kb/s
Channel(s) : 6 channels
Channel layout : L R C LFE Ls Rs
Sampling rate : 48.0 kHz
Frame rate : 31.250 FPS (1536 SPF)
Bit depth : 24 bits
Compression mode : Lossy
Stream size : 593 MiB (16%)
Service kind : Complete Main
Default : Yes
Forced : No

Text
ID : 3
Format : VobSub
Muxing mode : zlib
Codec ID : S_VOBSUB
Codec ID/Info : Picture based subtitle format used on DVDs
Duration : 2 h 4 min
Bit rate : 9 157 b/s
Count of elements : 1652
Stream size : 8.15 MiB (0%)
Language : English
Default : Yes
Forced : No

City of God (2002) 1080p BRrip HEVC AAC 5.1 PoOlLa (2 GB)

Format : Matroska
Format version : Version 4
File size : 2.09 GiB
Duration : 2 h 9 min
Overall bit rate : 2 316 kb/s
Movie name : City Of God (2002) Ripped By PoOlLa @ cinemakottaga.ml
Encoded date : UTC 2021-07-19 12:52:04
Writing application : mkvmerge v56.1.0 (‘My Friend’) 64-bit
Writing library : libebml v1.4.2 + libmatroska v1.6.4

Video
ID : 1
Format : HEVC
Format/Info : High Efficiency Video Coding
Format profile : [email protected]@Main
Codec ID : V_MPEGH/ISO/HEVC
Duration : 2 h 9 min
Bit rate : 2 011 kb/s
Width : 1 920 pixels
Height : 1 036 pixels
Display aspect ratio : 1.85:1
Frame rate mode : Variable
Frame rate : 23.976 FPS
Color space : YUV
Chroma subsampling : 4:2:0
Bit depth : 8 bits
Bits/(Pixel*Frame) : 0.042
Stream size : 1.82 GiB (87%)
Default : Yes
Forced : No
Color range : Limited
Color primaries : BT.709
Transfer characteristics : BT.709
Matrix coefficients : BT.709

Audio
ID : 2
Format : AAC LC
Format/Info : Advanced Audio Codec Low Complexity
Codec ID : A_AAC-2
Duration : 2 h 9 min
Bit rate : 297 kb/s
Channel(s) : 6 channels
Channel layout : L R C Cb Lb Rb
Sampling rate : 48.0 kHz
Frame rate : 46.875 FPS (1024 SPF)
Compression mode : Lossy
Stream size : 275 MiB (13%)
Language : Portuguese
Default : Yes
Forced : No

Text
ID : 3
Format : VobSub
Muxing mode : zlib
Codec ID : S_VOBSUB
Codec ID/Info : Picture based subtitle format used on DVDs
Duration : 2 h 4 min
Bit rate : 9 157 b/s
Count of elements : 1652
Stream size : 8.15 MiB (0%)
Language : English
Default : Yes
Forced : No

City Of God (2002) 720p BRrip HEVC 10bit Opus 2.0 PoOlLa (730 MB)

Format : Matroska
Format version : Version 4
File size : 736 MiB
Duration : 2 h 9 min
Overall bit rate : 794 kb/s
Movie name : City Of God (2002) Ripped By PoOlLa @ cinemakottaga.ml
Encoded date : UTC 2021-07-19 12:49:10
Writing application : mkvmerge v56.1.0 (‘My Friend’) 64-bit
Writing library : libebml v1.4.2 + libmatroska v1.6.4

Video
ID : 1
Format : HEVC
Format/Info : High Efficiency Video Coding
Format profile : Main [email protected]@Main
Codec ID : V_MPEGH/ISO/HEVC
Duration : 2 h 9 min
Bit rate : 730 kb/s
Width : 1 280 pixels
Height : 690 pixels
Display aspect ratio : 1.85:1
Frame rate mode : Variable
Frame rate : 23.976 FPS
Color space : YUV
Chroma subsampling : 4:2:0
Bit depth : 10 bits
Bits/(Pixel*Frame) : 0.034
Stream size : 676 MiB (92%)
Default : Yes
Forced : No
Color range : Limited
Color primaries : BT.709
Transfer characteristics : BT.709
Matrix coefficients : BT.709

Audio
ID : 2
Format : Opus
Codec ID : A_OPUS
Duration : 2 h 9 min
Bit rate : 55.7 kb/s
Channel(s) : 2 channels
Channel layout : L R
Sampling rate : 48.0 kHz
Frame rate : 50.000 FPS (960 SPF)
Bit depth : 24 bits
Compression mode : Lossy
Stream size : 51.5 MiB (7%)
Default : Yes
Forced : No

Text
ID : 3
Format : VobSub
Muxing mode : zlib
Codec ID : S_VOBSUB
Codec ID/Info : Picture based subtitle format used on DVDs
Duration : 2 h 4 min
Bit rate : 9 157 b/s
Count of elements : 1652
Stream size : 8.15 MiB (1%)
Language : English
Default : Yes
Forced : No

Telegram  Download Guide  Donate

City of God (2002)
City of God (2002)
City of God (2002)
City of God (2002)
City of God (2002)
City of God (2002)
City of God (2002)
Original title Cidade de Deus
IMDb Rating 8.6 713,159 votes
TMDb Rating 8.4 5,188 votes

Similar titles

Andhadhun (2018)
Cold Eyes
Bigil (2019)
Anniyan(2005)
Secrets & Lies (1996)
1983 (2014)
Cherry (2021)
Iyobinte Pusthakam (2014)
Yuvarathnaa (2021)
I Care a Lot (2021)
Parava
Hotel Rwanda (2004)
CinemaKottaga