Video Sources 167 Views

  • Watch trailer
Crows Zero II (2009)

Crows Zero II (2009)

Apr. 11, 2009Japan133 Min.N/A
Your rating: 0
0 0 votes

Synopsis

Genji and his victorious G.P.S. alliance find themselves facing down a new challenge by the students of Hosen Academy, feared by everyone as ‘The Army of Killers.’ The two schools, in fact, have a history of bad blood between them. And the simmering embers of hatred are about to flare up again, burning away any last remnants of the truce they had so rigorously observed until now.

Crows Zero II (2009) 1080p BRrip HEVC DDP 5.1 PoOlLa (1.5 gb))

Format : Matroska
Format version : Version 4
File size : 1.50 GiB
Duration : 2 h 13 min
Overall bit rate : 1 615 kb/s
Writing application : Lavf58.49.100
Writing library : Lavf58.49.100
ErrorDetectionType : Per level 1

Video
ID : 1
Format : HEVC
Format/Info : High Efficiency Video Coding
Format profile : [email protected]@Main
Codec ID : V_MPEGH/ISO/HEVC
Duration : 2 h 13 min
Bit rate : 1 135 kb/s
Width : 1 920 pixels
Height : 802 pixels
Display aspect ratio : 2.40:1
Frame rate mode : Variable
Original frame rate : 23.976 FPS
Color space : YUV
Chroma subsampling : 4:2:0
Bit depth : 8 bits
Stream size : 1.06 GiB (70%)
Writing library : x265 3.4:[Linux][GCC 8.3.0][64 bit] 8bit+10bit+12bit
Default : Yes
Forced : No
Color range : Limited
Color primaries : BT.709
Transfer characteristics : BT.709
Matrix coefficients : BT.709

Audio
ID : 2
Format : E-AC-3
Format/Info : Enhanced AC-3
Commercial name : Dolby Digital Plus
Codec ID : A_EAC3
Duration : 2 h 13 min
Bit rate mode : Constant
Bit rate : 448 kb/s
Channel(s) : 6 channels
Channel layout : L R C LFE Ls Rs
Sampling rate : 48.0 kHz
Frame rate : 31.250 FPS (1536 SPF)
Bit depth : 24 bits
Compression mode : Lossy
Stream size : 427 MiB (28%)
Writing library : Lavc58.99.100 eac3
Service kind : Complete Main
Default : Yes
Forced : No

Crows Zero II (2009) 720p BRrip HEVC 10bit Opus 2.0 PoOlLa (530 mb)

Format : Matroska
Format version : Version 4
File size : 532 MiB
Duration : 2 h 13 min
Overall bit rate : 559 kb/s
Encoded date : UTC 2020-11-10 05:49:01
Writing application : mkvmerge v51.0.0 (‘I Wish’) 64-bit
Writing library : libebml v1.4.0 + libmatroska v1.6.2 / Lavf58.49.100

Video
ID : 1
Format : HEVC
Format/Info : High Efficiency Video Coding
Format profile : Main [email protected]@Main
Codec ID : V_MPEGH/ISO/HEVC
Duration : 2 h 13 min
Bit rate : 500 kb/s
Width : 1 280 pixels
Height : 534 pixels
Display aspect ratio : 2.40:1
Frame rate mode : Variable
Frame rate : 23.976 (23976/1000) FPS
Color space : YUV
Chroma subsampling : 4:2:0
Bit depth : 10 bits
Bits/(Pixel*Frame) : 0.031
Stream size : 476 MiB (90%)
Title : poolla | cinemakotta.ga
Writing library : x265 3.4:[Linux][GCC 8.3.0][64 bit] 10bit
Default : Yes
Forced : No
Color range : Limited
Color primaries : BT.709
Transfer characteristics : BT.709
Matrix coefficients : BT.709

Audio
ID : 2
Format : Opus
Codec ID : A_OPUS
Duration : 2 h 13 min
Bit rate : 56.1 kb/s
Channel(s) : 2 channels
Channel layout : L R
Sampling rate : 48.0 kHz
Frame rate : 50.000 FPS (960 SPF)
Compression mode : Lossy
Stream size : 53.4 MiB (10%)
Title : cinemakotta.ga
Writing library : Lavc58.99.100 libopus
Language : Japanese
Default : Yes
Forced : No

Text
ID : 3
Format : UTF-8
Codec ID : S_TEXT/UTF8
Codec ID/Info : UTF-8 Plain Text
Duration : 2 h 8 min
Bit rate : 23 b/s
Count of elements : 892
Stream size : 22.5 KiB (0%)
Title : cinemakotta.ga
Language : English
Default : Yes
Forced : No

Crows Zero II (2009) 720p BRrip X264 AAC 2.0 PoOlLa (820 mb)

Format : MPEG-4
Format profile : Base Media
Codec ID : isom (isom/iso2/avc1/mp41)
File size : 820 MiB
Duration : 2 h 13 min
Overall bit rate mode : Variable
Overall bit rate : 861 kb/s
Writing application : Lavf58.49.100

Video
ID : 1
Format : AVC
Format/Info : Advanced Video Codec
Format profile : [email protected]
Format settings : CABAC / 4 Ref Frames
Format settings, CABAC : Yes
Format settings, Reference : 4 frames
Codec ID : avc1
Codec ID/Info : Advanced Video Coding
Duration : 2 h 13 min
Bit rate : 760 kb/s
Width : 1 280 pixels
Height : 534 pixels
Display aspect ratio : 2.40:1
Original display aspect rat : 2.40:1
Frame rate mode : Constant
Frame rate : 23.976 (24000/1001) FPS
Color space : YUV
Chroma subsampling : 4:2:0
Bit depth : 8 bits
Scan type : Progressive
Bits/(Pixel*Frame) : 0.046
Stream size : 724 MiB (88%)
Writing library : x264 core 161 r3018 db0d417
Color range : Limited
Color primaries : BT.709
Transfer characteristics : BT.709
Matrix coefficients : BT.709
Menus : 4
Codec configuration box : avcC

Audio
ID : 2
Format : AAC LC
Format/Info : Advanced Audio Codec Low Complexity
Codec ID : mp4a-40-2
Duration : 2 h 13 min
Duration_LastFrame : -10 ms
Bit rate mode : Constant
Bit rate : 96.0 kb/s
Channel(s) : 2 channels
Channel layout : L R
Sampling rate : 48.0 kHz
Frame rate : 46.875 FPS (1024 SPF)
Compression mode : Lossy
Stream size : 91.9 MiB (11%)
Default : Yes
Alternate group : 1
Menus : 4

Text
ID : 3
Format : Timed Text
Muxing mode : sbtl
Codec ID : tx3g
Duration : 2 h 8 min
Bit rate mode : Variable
Bit rate : 27 b/s
Stream size : 25.8 KiB (0%)
Default : Yes
Forced : No
Alternate group : 3
Menus : 4

Menu #1
ID : 4
Codec ID : text
Duration : 2 h 13 min
Language : English
Bit rate mode : CBR
Menu For : 1,2,3
Bit rate mode : Constant

Telegram  Download Guide  Donate

Crows Zero II (2009)
Original title クローズ ZERO II
IMDb Rating 7.2 4,510 votes
TMDb Rating 7.3 104 votes

Director

Cast

Shun Oguri isGenji Takaya
Genji Takaya
Takayuki Yamada isTamao Serizawa
Tamao Serizawa
Kenta Kiritani isTokio Tatsukawa
Tokio Tatsukawa
Meisa Kuroki isLuca Aizawa
Luca Aizawa
Kyôsuke Yabe isKen Katagiri
Ken Katagiri
Sousuke Takaoka isShun Izaki
Shun Izaki
Tsutomu Takahashi isTakashi Makise
Takashi Makise
Kaname Endô isYuji Tokaji
Yuji Tokaji
Suzunosuke isChuta Tamura
Chuta Tamura
Yûsuke Kamiji isShoji Tsutsumoto
Shoji Tsutsumoto

Similar titles

Kala (2021)
Pokkiri (2007)
Survival Family (2017)
Bhramaram(2009)
Antonia’s Line (1996)
Black Widow (2021)
My Night at Maud’s (1969)
Silk Road (2021)
Frailty (2001)
The Paradine Case (1947)
Eecha (2012)
Snatch (2000)
CinemaKottaga