Video Sources 57 Views

  • Watch trailer
Dara of Jasenovac (2020)

Dara of Jasenovac (2020)

Nov. 25, 2020Serbia130 Min.R
Your rating: 0
8 1 vote

Synopsis

During the Nazi-occupied Ustasha regime “NDH” in former Yugoslavia during WWII, little girl Dara is sent to the concentration camp complex Jasenovac in Croatia also known as “Balkan’s Auschwitz”.

Dara.of.Jasenovac.2020.720p.10bit.AMZN.WEB-DL.2CH.HEVC-MPEG7 (630MB)

Source …: Dara.of.Jasenovac.2020.1080p.AMZN.WEB-DL.DDP5.1.H.264-TEPES

Format : Matroska
Format version : Version 4
File size : 628 MiB
Duration : 2 h 11 min
Overall bit rate : 669 kb/s
Movie name : MPEG7 | Dara.of.Jasenovac.2020.720p.10bit.AMZN.WEB-DL.2CH.HEVC-MPEG7 | www.cinemakottaga.ml
Encoded date : UTC 2021-11-20 16:14:41
Writing application : mkvmerge v63.0.0 (‘Everything’) 64-bit
Writing library : libebml v1.4.2 + libmatroska v1.6.4
Cover : Yes
Attachments : cover.jpg

Video
ID : 1
Format : HEVC
Format/Info : High Efficiency Video Coding
Format profile : Main 10@L3.1@Main
Codec ID : V_MPEGH/ISO/HEVC
Duration : 2 h 11 min
Bit rate : 598 kb/s
Width : 1 280 pixels
Height : 534 pixels
Display aspect ratio : 2.40:1
Frame rate mode : Constant
Frame rate : 23.976 (24000/1001) FPS
Color space : YUV
Chroma subsampling : 4:2:0
Bit depth : 10 bits
Bits/(Pixel*Frame) : 0.036
Stream size : 561 MiB (89%)
Title : MPEG7 | www.cinemakottaga.ml
Default : Yes
Forced : No
Color range : Limited
Color primaries : BT.709
Transfer characteristics : BT.709
Matrix coefficients : BT.709

Audio
ID : 2
Format : AAC LC SBR
Format/Info : Advanced Audio Codec Low Complexity with Spectral Band Replication
Commercial name : HE-AAC
Format settings : NBC
Codec ID : A_AAC-5
Duration : 2 h 11 min
Bit rate : 70.0 kb/s
Channel(s) : 2 channels
Channel layout : L R
Sampling rate : 48.0 kHz
Frame rate : 23.438 FPS (2048 SPF)
Compression mode : Lossy
Delay relative to video : -105 ms
Stream size : 65.7 MiB (10%)
Title : MPEG7 | www.cinemakottaga.ml
Language : Serbian
Default : Yes
Forced : No

 

Dara.of.Jasenovac.2020.1080p.10bit.AMZN.WEB-DL.DDP5.1.HEVC-MPEG7 (2.7GB)

Source …: Dara.of.Jasenovac.2020.1080p.AMZN.WEB-DL.DDP5.1.H.264-TEPES

Format : Matroska
Format version : Version 4
File size : 2.63 GiB
Duration : 2 h 11 min
Overall bit rate : 2 872 kb/s
Movie name : MPEG7 | Dara.of.Jasenovac.2020.1080p.10bit.AMZN.WEB-DL.DDP5.1.HEVC-MPEG7 | www.cinemakottaga.ml
Encoded date : UTC 2021-11-20 16:12:15
Writing application : mkvmerge v63.0.0 (‘Everything’) 64-bit
Writing library : libebml v1.4.2 + libmatroska v1.6.4
Cover : Yes
Attachments : cover.jpg

Video
ID : 1
Format : HEVC
Format/Info : High Efficiency Video Coding
Format profile : Main 10@L4@High
Codec ID : V_MPEGH/ISO/HEVC
Duration : 2 h 11 min
Bit rate : 2 422 kb/s
Width : 1 920 pixels
Height : 800 pixels
Display aspect ratio : 2.40:1
Frame rate mode : Constant
Frame rate : 23.976 (24000/1001) FPS
Color space : YUV
Chroma subsampling : 4:2:0
Bit depth : 10 bits
Bits/(Pixel*Frame) : 0.066
Stream size : 2.22 GiB (84%)
Title : MPEG7 | www.cinemakottaga.ml
Default : Yes
Forced : No
Color range : Limited

Audio
ID : 2
Format : E-AC-3
Format/Info : Enhanced AC-3
Commercial name : Dolby Digital Plus
Codec ID : A_EAC3
Duration : 2 h 11 min
Bit rate mode : Constant
Bit rate : 448 kb/s
Channel(s) : 6 channels
Channel layout : L R C LFE Ls Rs
Sampling rate : 48.0 kHz
Frame rate : 31.250 FPS (1536 SPF)
Bit depth : 32 bits
Compression mode : Lossy
Stream size : 420 MiB (16%)
Title : MPEG7 | www.cinemakottaga.ml
Language : Serbian
Service kind : Complete Main
Default : Yes
Forced : No

 

 

 

Telegram  Download Guide  Donate

Dara of Jasenovac (2020)
Dara of Jasenovac (2020)
Dara of Jasenovac (2020)
Original title Дара из Јасеновца
IMDb Rating 8.8 79,789 votes
TMDb Rating 7.9 42 votes

Director

Cast

Marko Janketić isVjekoslav 'Maks' Luburić
Vjekoslav 'Maks' Luburić
Vuk Kostić isFra Majstorović
Fra Majstorović
Radoslav Milenković isTrain Refused Man
Train Refused Man
Anja Stanić isNada Ilić
Nada Ilić
Zlatan Vidović isMile Ilić
Mile Ilić

Similar titles

Cinema Bandi (2021)
Family Relations (1982)
Chidambaram
Harishchandrachi Factory (2009)
Lamb (2021)
Chandrolsavam (2005)
The Eternal Zero (2013)
Mayabazar 2016 (2020)
Disobedience (2017)
The Leopard (1969)
Parava
Saving Private Ryan (1998)
CinemaKottaga