Video Sources 67 Views

  • Watch trailer
Detective Chinatown 2 (2018)

Detective Chinatown 2 (2018)

Feb. 16, 2018China121 Min.R
Your rating: 0
6 1 vote

Synopsis

Driven by the desire for the huge reward, Tang Ren (by Wang Baoqiang) tricked Qin Feng (by Liu Haoran) to New York, to attend the World Detective Contest,. Later on, behind the crazy competition, Qin and Tang discovered the real hidden facts of this contest.

Detective Chinatown 2 (2018) 1080p BRrip HEVC AAC 5.1 PoOlLa (1.5 GB)

Format : Matroska
Format version : Version 4
File size : 1.57 GiB
Duration : 2 h 0 min
Overall bit rate : 1 856 kb/s
Movie name : Detective Chinatown 2 (2018) 1080p BRrip HEVC AAC 5.1 PoOlLa
Encoded date : UTC 2021-07-29 04:24:54
Writing application : mkvmerge v56.1.0 (‘My Friend’) 64-bit
Writing library : libebml v1.4.2 + libmatroska v1.6.4

Video
ID : 1
Format : HEVC
Format/Info : High Efficiency Video Coding
Format profile : Main@L4@Main
Codec ID : V_MPEGH/ISO/HEVC
Duration : 2 h 0 min
Bit rate : 1 527 kb/s
Width : 1 920 pixels
Height : 800 pixels
Display aspect ratio : 2.40:1
Frame rate mode : Variable
Frame rate : 24.000 FPS
Color space : YUV
Chroma subsampling : 4:2:0
Bit depth : 8 bits
Bits/(Pixel*Frame) : 0.041
Stream size : 1.29 GiB (82%)
Color range : Limited
Color primaries : BT.709
Transfer characteristics : BT.709
Matrix coefficients : BT.709

Audio
ID : 2
Format : AAC LC
Format/Info : Advanced Audio Codec Low Complexity
Codec ID : A_AAC-2
Duration : 2 h 0 min
Bit rate : 320 kb/s
Channel(s) : 6 channels
Channel layout : L R C Cb Lb Rb
Sampling rate : 48.0 kHz
Frame rate : 46.875 FPS (1024 SPF)
Compression mode : Lossy
Stream size : 277 MiB (17%)

Text
ID : 3
Format : VobSub
Muxing mode : zlib
Codec ID : S_VOBSUB
Stream size : 9.07 MiB (0%)
Language : English

Detective Chinatown 2 (2018) 720p BRrip HEVC 10bit Opus 2.0 PoOlLa (620 MB)

Format : Matroska
Format version : Version 4
File size : 621 MiB
Duration : 2 h 0 min
Overall bit rate : 719 kb/s
Movie name : Detective Chinatown 2 (2018) 720p BRrip HEVC 10bit Opus 2.0 PoOlLa
Writing application : mkvmerge v56.1.0 (‘My Friend’) 64-bit
Writing library : libebml v1.4.2 + libmatroska v1.6.4

Video
ID : 1
Format : HEVC
Format/Info : High Efficiency Video Coding
Format profile : Main 10@L3.1@Main
Codec ID : V_MPEGH/ISO/HEVC
Duration : 2 h 0 min
Bit rate : 650 kb/s
Width : 1 280 pixels
Height : 534 pixels
Display aspect ratio : 2.40:1
Frame rate mode : Variable
Frame rate : 24.000 FPS
Color space : YUV
Chroma subsampling : 4:2:0
Bit depth : 10 bits
Bits/(Pixel*Frame) : 0.040
Stream size : 562 MiB (90%)
Color range : Limited
Color primaries : BT.709
Transfer characteristics : BT.709
Matrix coefficients : BT.709

Audio
ID : 2
Format : Opus
Codec ID : A_OPUS
Duration : 2 h 0 min
Bit rate : 59.6 kb/s
Channel(s) : 2 channels
Channel layout : L R
Sampling rate : 48.0 kHz
Frame rate : 50.000 FPS (960 SPF)
Bit depth : 32 bits
Compression mode : Lossy
Stream size : 51.5 MiB (8%)

Text
ID : 3
Format : VobSub
Muxing mode : zlib
Codec ID : S_VOBSUB
Language : English

Telegram  Download Guide  Donate

Detective Chinatown 2 (2018)
Original title 唐人街探案2
IMDb Rating 6.1 2,295 votes
TMDb Rating 6.3 41 votes

Director

Chen Sicheng
Director

Cast

Xiao Yang is宋义
宋义
Bai Ling isFortune Teller
Fortune Teller
Wang Xun is陆国富
陆国富
Michael Pitt isDr. Springfield
Dr. Springfield
Yuen Wah is莫友乾
莫友乾

Similar titles

The Secret in Their Eyes (2009)
Haseen Dillruba (2021)
Pandippada (2005)
Audition (1999)
The Hitman’s Bodyguard (2017)
Irul (2021)
Badla (2019)
Fear Street: 1666 (2021)
Chennai 600028 (2007)
Anuraga Karikkin Vellam
The Soul (2021)
Baywatch (2017)
CinemaKottaga