Video Sources 179 Views

  • Watch trailer
Dhamaka (2021)

Dhamaka (2021)

To win something, will you lose everything?Nov. 19, 2021India104 Min.N/A
Your rating: 0
7 1 vote

Synopsis

When a cynical ex-TV news anchor gets an alarming call on his radio show, he sees a chance for a career comeback — but it may cost his conscience.

Dhamaka.2021.720p.10bit.NF.WEB.DL.x265.2CH.HEVC-MPEG7 (570MB)

Source …: Dhamaka.2021.1080p.NF.WEB.DL.H264.Multi.DDP5.1.Atmos-DDH

Format : Matroska
Format version : Version 4
File size : 567 MiB
Duration : 1 h 44 min
Overall bit rate : 760 kb/s
Movie name : MPEG7 | Dhamaka.2021.Hindi.720p.10bit.NF.WEB.DL.x265.2CH.HEVC-MPEG7 | www.cinemakottaga.ml
Encoded date : UTC 2021-11-20 17:31:11
Writing application : mkvmerge v61.0.0 (‘So’) 64-bit
Writing library : libebml v1.4.2 + libmatroska v1.6.4
Cover : Yes
Attachments : cover.jpg

Video
ID : 1
Format : HEVC
Format/Info : High Efficiency Video Coding
Format profile : Main 10@L4@High
Codec ID : V_MPEGH/ISO/HEVC
Duration : 1 h 44 min
Bit rate : 690 kb/s
Width : 1 280 pixels
Height : 536 pixels
Display aspect ratio : 2.40:1
Frame rate mode : Variable
Frame rate : 24.000 FPS
Color space : YUV
Chroma subsampling : 4:2:0
Bit depth : 10 bits
Bits/(Pixel*Frame) : 0.042
Stream size : 515 MiB (91%)
Title : MPEG7 | www.cinemakottaga.ml
Default : Yes
Forced : No

Audio
ID : 2
Format : AAC LC SBR
Format/Info : Advanced Audio Codec Low Complexity with Spectral Band Replication
Commercial name : HE-AAC
Format settings : Explicit
Codec ID : A_AAC-2
Duration : 1 h 44 min
Bit rate : 66.2 kb/s
Channel(s) : 2 channels
Channel layout : L R
Sampling rate : 48.0 kHz
Frame rate : 23.438 FPS (2048 SPF)
Compression mode : Lossy
Stream size : 49.2 MiB (9%)
Title : MPEG7 | www.cinemakottaga.ml
Language : Hindi
Default : No
Forced : No

Text #1
ID : 3
Format : UTF-8
Codec ID : S_TEXT/UTF8
Codec ID/Info : UTF-8 Plain Text
Duration : 1 h 42 min
Bit rate : 228 b/s
Count of elements : 1810
Stream size : 172 KiB (0%)
Title : MPEG7 | www.cinemakottaga.ml
Language : Hindi
Default : No
Forced : No

Text #2
ID : 4
Format : UTF-8
Codec ID : S_TEXT/UTF8
Codec ID/Info : UTF-8 Plain Text
Duration : 8 min 8 s
Bit rate : 5 b/s
Count of elements : 8
Stream size : 312 Bytes (0%)
Title : MPEG7 | www.cinemakottaga.ml
Language : Hindi
Default : No
Forced : Yes

Text #3
ID : 5
Format : UTF-8
Codec ID : S_TEXT/UTF8
Codec ID/Info : UTF-8 Plain Text
Duration : 1 h 42 min
Bit rate : 76 b/s
Count of elements : 1454
Stream size : 57.5 KiB (0%)
Title : MPEG7 | www.cinemakottaga.ml
Language : English
Default : No
Forced : No

 

 

Dhamaka.2021.1080p.10bit.NF.WEB.DL.x265.6CH.HEVC-MPEG7 (1.1GB)

Source …:Dhamaka.2021.1080p.NF.WEB.DL.H264.Multi.DDP5.1.Atmos-DDH

Format : Matroska
Format version : Version 4
File size : 1.16 GiB
Duration : 1 h 44 min
Overall bit rate : 1 596 kb/s
Movie name : MPEG7 | Dhamaka.2021.1080p.10bit.NF.WEB.DL.x265.6CH.HEVC-MPEG7 | www.cinemakottaga.ml
Encoded date : UTC 2021-11-20 15:11:38
Writing application : mkvmerge v61.0.0 (‘So’) 64-bit
Writing library : libebml v1.4.2 + libmatroska v1.6.4
Cover : Yes
Attachments : cover.jpg

Video
ID : 1
Format : HEVC
Format/Info : High Efficiency Video Coding
Format profile : Main 10@L4@High
Codec ID : V_MPEGH/ISO/HEVC
Duration : 1 h 44 min
Bit rate : 1 372 kb/s
Width : 1 920 pixels
Height : 808 pixels
Display aspect ratio : 2.40:1
Frame rate mode : Variable
Frame rate : 24.000 FPS
Color space : YUV
Chroma subsampling : 4:2:0
Bit depth : 10 bits
Bits/(Pixel*Frame) : 0.037
Stream size : 1 024 MiB (86%)
Title : MPEG7 | www.cinemakottaga.ml
Default : Yes
Forced : No

Audio
ID : 2
Format : AAC LC SBR
Format/Info : Advanced Audio Codec Low Complexity with Spectral Band Replication
Commercial name : HE-AAC
Format settings : Explicit
Codec ID : A_AAC-2
Duration : 1 h 44 min
Bit rate : 216 kb/s
Channel(s) : 6 channels
Channel layout : C L R Ls Rs LFE
Sampling rate : 48.0 kHz
Frame rate : 23.438 FPS (2048 SPF)
Compression mode : Lossy
Stream size : 161 MiB (14%)
Title : MPEG7 | www.cinemakottaga.ml
Language : Hindi
Default : Yes
Forced : No

Text #1
ID : 3
Format : UTF-8
Codec ID : S_TEXT/UTF8
Codec ID/Info : UTF-8 Plain Text
Duration : 1 h 42 min
Bit rate : 228 b/s
Count of elements : 1810
Stream size : 172 KiB (0%)
Title : MPEG7 | www.cinemakottaga.ml
Language : Hindi
Default : No
Forced : No

Text #2
ID : 4
Format : UTF-8
Codec ID : S_TEXT/UTF8
Codec ID/Info : UTF-8 Plain Text
Duration : 8 min 8 s
Bit rate : 5 b/s
Count of elements : 8
Stream size : 312 Bytes (0%)
Title : MPEG7 | www.cinemakottaga.ml
Language : Hindi
Default : No
Forced : Yes

Text #3
ID : 5
Format : UTF-8
Codec ID : S_TEXT/UTF8
Codec ID/Info : UTF-8 Plain Text
Duration : 1 h 42 min
Bit rate : 76 b/s
Count of elements : 1454
Stream size : 57.5 KiB (0%)
Title : MPEG7 | www.cinemakottaga.ml
Language : English
Default : No
Forced : No

 

 

Telegram  Download Guide  Donate

Dhamaka (2021)
Dhamaka (2021)
Dhamaka (2021)
Dhamaka (2021)
Dhamaka (2021)
Dhamaka (2021)
Dhamaka (2021)
Dhamaka (2021)
Original title धमाका
IMDb Rating 9.5 28 votes
TMDb Rating 6.2 3 votes

Director

Ram Madhvani
Director

Cast

Kartik Aaryan isArjun Pathak
Arjun Pathak
Amruta Subhash isAnkita Bose
Ankita Bose
Mrunal Thakur isSaumya Mehra Pathak
Saumya Mehra Pathak
Vishwajeet Pradhan isSubhash Mathur
Subhash Mathur
Vikas Kumar isPraveen Kamath
Praveen Kamath
Anuj Gurwara isManas Sethi
Manas Sethi
Priya Tandon isKripa Ved
Kripa Ved

Similar titles

Lux Æterna (2019)
Varathan
The Untouchables (1987)
The Prestige (2006)
The Omen (1976)
Adverse (2020)
Cure (1997)
Last Night in Soho (2021)
Kaante (2002)
Pizza (2012)
Sapthamashree Thaskaraha(2014)
Fist of Fury (1972)
CinemaKottaga