Video Sources 739 Views

  • Watch trailer
Dikkiloona (2021)

Dikkiloona (2021)

Sep. 10, 2021India144 Min.N/A
Your rating: 0
6 1 vote

Synopsis

Frustrated with his troubled married life, a man goes back in time to stop his marriage from ever happening.

Dikkiloona (2021) 720p WEB-DL HEVC 10bit AAC 2.0 PoOlLa (735 MB)

Format : Matroska
Format version : Version 4
File size : 735 MiB
Duration : 2 h 24 min
Overall bit rate : 713 kb/s
Encoded date : UTC 2021-09-11 16:05:31
Writing application : mkvmerge v59.0.0 (‘Shining Star’) 64-bit
Writing library : libebml v1.4.2 + libmatroska v1.6.4

Video
ID : 1
Format : HEVC
Format/Info : High Efficiency Video Coding
Format profile : Main 10@L3.1@Main
Codec ID : V_MPEGH/ISO/HEVC
Duration : 2 h 24 min
Bit rate : 646 kb/s
Width : 1 280 pixels
Height : 544 pixels
Display aspect ratio : 2.35:1
Frame rate mode : Constant
Frame rate : 25.000 FPS
Color space : YUV
Chroma subsampling : 4:2:0
Bit depth : 10 bits
Bits/(Pixel*Frame) : 0.037
Stream size : 666 MiB (91%)
Title : Encoded by PoOlLa | cinemakottaga.ml
Default : Yes
Forced : No
Color range : Full
Color primaries : BT.709
Transfer characteristics : BT.709
Matrix coefficients : BT.709

Audio
ID : 2
Format : AAC LC
Format/Info : Advanced Audio Codec Low Complexity
Codec ID : A_AAC-2
Duration : 2 h 24 min
Bit rate : 64.0 kb/s
Channel(s) : 2 channels
Channel layout : L R
Sampling rate : 48.0 kHz
Frame rate : 46.875 FPS (1024 SPF)
Compression mode : Lossy
Stream size : 65.9 MiB (9%)
Language : Tamil
Default : Yes
Forced : No

Text
ID : 3
Format : UTF-8
Codec ID : S_TEXT/UTF8
Codec ID/Info : UTF-8 Plain Text
Duration : 2 h 20 min
Bit rate : 85 b/s
Count of elements : 2974
Stream size : 88.0 KiB (0%)
Language : English

Dikkiloona (2021) 1080p 10bit ZEE5 WEB-DL x265 2CH HEVC MPEG7 (1.6GB)

Source …: Dikkiloona.2021.1080p.ZEE5.WEB-DL.AAC2.0.H.264-Telly

Format : Matroska
Format version : Version 4
File size : 1.59 GiB
Duration : 2 h 24 min
Overall bit rate : 1 583 kb/s
Movie name : MPEG7 | Dikkiloona.2021.1080p.10bit.ZEE5.WEB-DL.x265.2CH.HEVC-MPEG7 | www.cinemakottaga.ml
Encoded date : UTC 2021-09-12 04:42:30
Writing application : mkvmerge v61.0.0 (‘So’) 64-bit
Writing library : libebml v1.4.2 + libmatroska v1.6.4
Cover : Yes
Attachments : cover.jpg

Video
ID : 1
Format : HEVC
Format/Info : High Efficiency Video Coding
Format profile : Main 10@L4@Main
Codec ID : V_MPEGH/ISO/HEVC
Duration : 2 h 24 min
Bit rate : 1 516 kb/s
Width : 1 920 pixels
Height : 816 pixels
Display aspect ratio : 2.35:1
Frame rate mode : Constant
Frame rate : 25.000 FPS
Color space : YUV
Chroma subsampling : 4:2:0
Bit depth : 10 bits
Bits/(Pixel*Frame) : 0.039
Stream size : 1.53 GiB (96%)
Title : MPEG7 | www.cinemakottaga.ml
Default : Yes
Forced : No
Color range : Limited
Color primaries : BT.709
Transfer characteristics : BT.709
Matrix coefficients : BT.709

Audio
ID : 2
Format : AAC LC
Format/Info : Advanced Audio Codec Low Complexity
Codec ID : A_AAC-2
Duration : 2 h 24 min
Bit rate : 64.0 kb/s
Channel(s) : 2 channels
Channel layout : L R
Sampling rate : 48.0 kHz
Frame rate : 46.875 FPS (1024 SPF)
Compression mode : Lossy
Stream size : 66.0 MiB (4%)
Title : MPEG7 | www.cinemakottaga.ml
Language : Tamil
Default : Yes
Forced : No

Text
ID : 3
Format : UTF-8
Codec ID : S_TEXT/UTF8
Codec ID/Info : UTF-8 Plain Text
Duration : 2 h 20 min
Bit rate : 85 b/s
Count of elements : 2973
Stream size : 87.9 KiB (0%)
Title : MPEG7 | www.cinemakottaga.ml
Language : English
Default : No
Forced : No

 

 

Telegram  Download Guide  Donate

Dikkiloona (2021)
Original title டிக்கிலோனா

Similar titles

Mandela (2021)
Sunshine (2007)
Indoo Ki Jawani (2020)
Fast Times at Ridgemont High
Happy Wedding (2016)
Maniyarayile Ashokan
The Dark Side of the Heart 2
Simple Simon (2010)
Me and Earl and the Dying Girl (2015)
Avatar (2009)
Degree College (2020)
Bāhubali: The Beginning
CinemaKottaga