Video Sources 3484 Views

  • Watch trailer
Drishyam 2 (2021)

Drishyam 2 (2021)

The ResumptionFeb. 19, 2021India153 Min.N/A
Your rating: 0
9 2 votes

Synopsis

A mystery hidden by Georgekutty from the past comes to trouble him and his family.

Drishyam 2 (2021) 720p WEB-DL Dolby HEVC 2CH x265 SNR (1GB)

General
File size : 1gb
Video Format : HEVC
Format/Info : High Efficiency Video Coding
Width : 1080 pixels
Height : 568 pixels

Audio
Channel(s) : 2 channels
Language : Malayalam

Text
Format : with subtitle

Drishyam 2 (2021) 720p 10bit AMZN WEB-DL 2CH HEVC ESub MPEG7 (663MB)

Duration : 2hr 33min

Source :


Video Format : HEVC

Format/Info : High Efficiency Video Coding

Width : 1 280 pixels

Height : 534 pixels

Bit depth : 10bit


Audio Format : Opus

Channel(s) : 2 channels

Language : malayalam


Text Format : srt

Language : English



Drishyam 2 (2021) 1080p 10bit AMZN WEB-DL 6CH HEVC ESub MPEG7 (1.3GB)

Duration : 2hr 33min

Source :


Video Format : HEVC

Format/Info : High Efficiency Video Coding

Width : 1 920 pixels

Height : 800 pixels

Bit depth : 10bit


Audio Format : AAC

Format/Info : Advanced Audio Codec

Channel(s) : 6 channels

Language : Mlayalam


Text Format : srt

Language : English



Drishyam 2 (2021) 1080p AMZN WEB-DL 6CH HEVC ESub MPEG7 (1.5GB)

Duration : 2hr 33min

Source :


Video Format : HEVC

Format/Info : High Efficiency Video Coding

Width : 1 920 pixels

Height : 800 pixels

Bit depth : 8bit


Audio Format : AAC

Format/Info : Advanced Audio Codec

Channel(s) : 6 channels

Language : Malayalam


Text Format : srt

Language : English



Drishyam 2 (2021) (1080p 10bit AMZN WEB-DL x265 HEVC E-AC3 5.1) [MPEG7] (2.5GB)

Format : Matroska
Format version : Version 4
File size : 2.54 GiB
Duration : 2 h 33 min
Overall bit rate : 2 374 kb/s
Movie name : MPEG7 Drishyam 2 (2021) (1080p 10bit AMZN WEB-DL x265 HEVC E-AC3 5.1) [MPEG7] ~ www.cinemakotttga.ml
Encoded date : UTC 2021-02-22 18:25:56
Writing application : mkvmerge v53.0.0 (‘Fool’s Gold’) 64-bit
Writing library : libebml v1.4.1 + libmatroska v1.6.2 (Shanaencoder)
Cover : Yes
Attachments : cover.jpg

Video
ID : 1
Format : HEVC
Format/Info : High Efficiency Video Coding
Format profile : Main [email protected]@Main
Codec ID : V_MPEGH/ISO/HEVC
Duration : 2 h 33 min
Bit rate : 1 924 kb/s
Width : 1 920 pixels
Height : 800 pixels
Display aspect ratio : 2.40:1
Frame rate mode : Constant
Frame rate : 24.000 FPS
Color space : YUV
Chroma subsampling : 4:2:0
Bit depth : 10 bits
Bits/(Pixel*Frame) : 0.052
Stream size : 2.06 GiB (81%)
Title : MPEG7 ~ www.cinemakotttga.ml
Default : Yes
Forced : No
Color range : Limited
Color primaries : BT.709
Transfer characteristics : BT.709
Matrix coefficients : BT.709

Audio
ID : 2
Format : E-AC-3
Format/Info : Enhanced AC-3
Commercial name : Dolby Digital Plus
Codec ID : A_EAC3
Duration : 2 h 33 min
Bit rate mode : Constant
Bit rate : 448 kb/s
Channel(s) : 6 channels
Channel layout : L R C LFE Ls Rs
Sampling rate : 48.0 kHz
Frame rate : 31.250 FPS (1536 SPF)
Compression mode : Lossy
Stream size : 491 MiB (19%)
Title : MPEG7 ~ www.cinemakotttga.ml
Language : Malayalam
Service kind : Complete Main
Default : Yes
Forced : No

Text
ID : 3
Format : UTF-8
Codec ID : S_TEXT/UTF8
Codec ID/Info : UTF-8 Plain Text
Duration : 2 h 29 min
Bit rate : 87 b/s
Count of elements : 2853
Stream size : 95.2 KiB (0%)
Title : MPEG7 ~ www.cinemakotttga.ml
Language : English
Default : Yes
Forced : No

 

Drishyam 2 (2021) (2160p 4K 10bit SDR WEB-DL x265 E-AC3 5.1) [MPEG7] (4GB)

Source : Drishyam.2.2021.2160p.WEB-DL.DDP5.1.H.265-Telly

 

Format version : Version 4
File size : 3.80 GiB
Duration : 2 h 33 min
Overall bit rate : 3 546 kb/s
Movie name : MPEG7 – Drishyam 2 (2021) (2160p 4K10bit SDR WEB-DL x265 E-AC3 5.1) [MPEG7] – www.cinemakottaga.ml
Encoded date : UTC 2021-02-28 05:05:38
Writing application : mkvmerge v54.0.0 (‘F Maj Pixie’) 64-bit
Writing library : libebml v1.4.2 + libmatroska v1.6.3 (Shana)
Cover : Yes
Attachments : cover.jpg

Video
ID : 1
Format : HEVC
Format/Info : High Efficiency Video Coding
Format profile : Main [email protected]@Main
Codec ID : V_MPEGH/ISO/HEVC
Duration : 2 h 33 min
Bit rate : 3 032 kb/s
Width : 3 840 pixels
Height : 1 600 pixels
Display aspect ratio : 2.40:1
Frame rate mode : Constant
Frame rate : 24.000 FPS
Color space : YUV
Chroma subsampling : 4:2:0
Bit depth : 10 bits
Bits/(Pixel*Frame) : 0.021
Stream size : 3.25 GiB (85%)
Title : MPEG7 – www.cinemakottaga.ml
Default : Yes
Forced : No
Color range : Limited
Color primaries : BT.709
Transfer characteristics : BT.709
Matrix coefficients : BT.709

Audio
ID : 2
Format : E-AC-3
Format/Info : Enhanced AC-3
Commercial name : Dolby Digital Plus
Codec ID : A_EAC3
Duration : 2 h 33 min
Bit rate mode : Constant
Bit rate : 512 kb/s
Channel(s) : 6 channels
Channel layout : L R C LFE Ls Rs
Sampling rate : 48.0 kHz
Frame rate : 31.250 FPS (1536 SPF)
Bit depth : 32 bits
Compression mode : Lossy
Stream size : 561 MiB (14%)
Title : MPEG7 – www.cinemakottaga.ml
Language : Malayalam
Service kind : Complete Main
Default : Yes
Forced : No

Text
ID : 3
Format : UTF-8
Codec ID : S_TEXT/UTF8
Codec ID/Info : UTF-8 Plain Text
Duration : 2 h 29 min
Bit rate : 87 b/s
Count of elements : 2853
Stream size : 95.2 KiB (0%)
Title : MPEG7 – www.cinemakottaga.ml
Language : English
Default : Yes
Forced : No

Menu
00:00:00.000 : en:Disclaimer
00:00:30.000 : en:Studio Logo
00:00:54.000 : en:Thank you note
00:01:38.000 : en:Studio Logo
00:01:43.000 : en:Title Sequence
00:01:59.000 : en:Scene 6
00:04:56.000 : en:Opening Credits
00:05:18.000 : en:Scene 8
00:13:01.000 : en:Scene 9
00:20:58.000 : en:Scene 10
00:30:44.000 : en:Scene 11
00:39:25.000 : en:Scene 12
00:49:14.000 : en:Scene 13
00:58:32.000 : en:Scene 14
01:05:35.000 : en:Scene 15
01:14:34.000 : en:Scene 16
01:22:46.000 : en:Scene 17
01:30:53.000 : en:Scene 18
01:38:17.000 : en:Scene 19
01:47:00.000 : en:Scene 20
01:54:00.000 : en:Scene 21
02:03:57.000 : en:Scene 22
02:11:05.000 : en:Scene 23
02:20:09.000 : en:Scene 24
02:30:08.000 : en:End Credits

 



 

Telegram  Download Guide  Donate

Drishyam 2 (2021)
Drishyam 2 (2021)
Drishyam 2 (2021)
Original title ദൃശ്യം 2
IMDb Rating N/A N/A votes
TMDb Rating 7.9 5 votes

Director

Cast

Mohanlal isGeorgekutty
Georgekutty
Meena isRani George
Rani George
Asha Sarath isGeetha Prabhakar
Geetha Prabhakar
Esther Anil isAnumol George
Anumol George
Ansiba Hassan isAnju George
Anju George
Siddique isPrabhakar
Prabhakar
Joy Mathew isPublic Prosecutor
Public Prosecutor
Krishna isPolice Officer
Police Officer

Similar titles

Kingdom: Ashin of the North (2021)
Android Kunjappan Version 5.25 (2019)
Sunshine (2007)
Hedwig and the Angry Inch (2001)
Brochevarevaru Ra
Rage (2016)
The Wind That Shakes the Barley (2006)
Burnt by the Sun 2: Exodus (2010)
Riders of Justice (2020)
The Girl Who Leapt Through Time (2006)
Space Sweepers (2021)
Anthropoid (2016)
CinemaKottaga