Video Sources 1333 Views

  • Watch trailer
Dune (2021)

Dune (2021)

Beyond fear, destiny awaits.Sep. 15, 2021United States155 Min.PG-13
Your rating: 0
7.8 4 votes

Synopsis

Paul Atreides, a brilliant and gifted young man born into a great destiny beyond his understanding, must travel to the most dangerous planet in the universe to ensure the future of his family and his people. As malevolent forces explode into conflict over the planet’s exclusive supply of the most precious resource in existence-a commodity capable of unlocking humanity’s greatest potential-only those who can conquer their fear will survive.

Dune (2021) 720p 10bit HMAX WEB-DL 2CH HEVC MPEG7 (612MB)

Source …: Dune.2021.1080p.HMAX.WEB-DL.DD%2B5.1.H.264-SPECT3R

Format : Matroska
Format version : Version 4
File size : 612 MiB
Duration : 2 h 35 min
Overall bit rate : 550 kb/s
Movie name : MPEG7 | Dune.2021.720p.10bit.HMAX.WEB-DL.2CH.HEVC-MPEG7 | www.cinemakottaga.ml
Encoded date : UTC 2021-10-22 13:43:45
Writing application : mkvmerge v62.0.0 (‘Apollo’) 64-bit
Writing library : libebml v1.4.2 + libmatroska v1.6.4
Cover : Yes
Attachments : cover.jpg

Video
ID : 1
Format : HEVC
Format/Info : High Efficiency Video Coding
Format profile : Main 10@L3.1@Main
Codec ID : V_MPEGH/ISO/HEVC
Duration : 2 h 35 min
Bit rate : 493 kb/s
Width : 1 280 pixels
Height : 536 pixels
Display aspect ratio : 2.40:1
Frame rate mode : Variable
Frame rate : 23.976 FPS
Color space : YUV
Chroma subsampling : 4:2:0
Bit depth : 10 bits
Bits/(Pixel*Frame) : 0.030
Stream size : 548 MiB (90%)
Title : MPEG7 | www.cinemakottaga.ml
Default : Yes
Forced : No
Color range : Limited
Color primaries : BT.709
Transfer characteristics : BT.709
Matrix coefficients : BT.709

Audio
ID : 2
Format : AAC LC SBR
Format/Info : Advanced Audio Codec Low Complexity with Spectral Band Replication
Commercial name : HE-AAC
Format settings : Explicit
Codec ID : A_AAC-2
Duration : 2 h 35 min
Bit rate : 55.0 kb/s
Channel(s) : 2 channels
Channel layout : L R
Sampling rate : 48.0 kHz
Frame rate : 23.438 FPS (2048 SPF)
Compression mode : Lossy
Stream size : 61.1 MiB (10%)
Title : MPEG7 | www.cinemakottaga.ml
Language : English
Default : Yes
Forced : No

Text
ID : 3
Format : UTF-8
Codec ID : S_TEXT/UTF8
Codec ID/Info : UTF-8 Plain Text
Duration : 2 h 27 min
Bit rate : 41 b/s
Count of elements : 2274
Stream size : 44.7 KiB (0%)
Title : MPEG7 | www.cinemakottaga.ml
Language : English
Default : Yes
Forced : No

 

Dune (2021) 1080p HMAX WEB-DL 6CH HEVC MPEG7 (1.7GB)

Source …: Dune.2021.1080p.HMAX.WEB-DL.DD+5.1.H.264-SPECT3R

Format : Matroska
Format version : Version 4
File size : 1.69 GiB
Duration : 2 h 35 min
Overall bit rate : 1 560 kb/s
Movie name : MPEG7 | Dune.2021.1080p.HMAX.WEB-DL.6CH.HEVC-MPEG7 | www.cinemakottaga.ml
Encoded date : UTC 2021-10-22 16:53:36
Writing application : mkvmerge v62.0.0 (‘Apollo’) 64-bit
Writing library : libebml v1.4.2 + libmatroska v1.6.4
Cover : Yes
Attachments : cover.jpg

Video
ID : 1
Format : HEVC
Format/Info : High Efficiency Video Coding
Format profile : Main@L4@Main
Codec ID : V_MPEGH/ISO/HEVC
Duration : 2 h 35 min
Bit rate : 1 334 kb/s
Width : 1 920 pixels
Height : 804 pixels
Display aspect ratio : 2.40:1
Frame rate mode : Variable
Frame rate : 23.976 FPS
Color space : YUV
Chroma subsampling : 4:2:0
Bit depth : 8 bits
Bits/(Pixel*Frame) : 0.036
Stream size : 1.45 GiB (86%)
Title : MPEG7 | www.cinemakottaga.ml
Default : Yes
Forced : No
Color range : Limited
Color primaries : BT.709
Transfer characteristics : BT.709
Matrix coefficients : BT.709

Audio
ID : 2
Format : AAC LC SBR
Format/Info : Advanced Audio Codec Low Complexity with Spectral Band Replication
Commercial name : HE-AAC
Format settings : NBC
Codec ID : A_AAC-5
Duration : 2 h 35 min
Bit rate : 224 kb/s
Channel(s) : 6 channels
Channel layout : C L R Ls Rs LFE
Sampling rate : 48.0 kHz
Frame rate : 23.438 FPS (2048 SPF)
Compression mode : Lossy
Stream size : 249 MiB (14%)
Title : MPEG7 | www.cinemakottaga.ml
Language : English
Default : Yes
Forced : No

Text
ID : 3
Format : UTF-8
Codec ID : S_TEXT/UTF8
Codec ID/Info : UTF-8 Plain Text
Duration : 2 h 27 min
Bit rate : 41 b/s
Count of elements : 2274
Stream size : 44.7 KiB (0%)
Title : MPEG7 | www.cinemakottaga.ml
Language : English
Default : Yes
Forced : No

 

Telegram  Download Guide  Donate

Dune (2021)
Dune (2021)
Dune (2021)
Dune (2021)
Dune (2021)
Dune (2021)
Dune (2021)
Dune (2021)
Dune (2021)
Dune (2021)
Original title Dune
IMDb Rating 8.3 92,024 votes
TMDb Rating 8.1 1,863 votes

Director

Cast

Timothée Chalamet isPaul Atreides
Paul Atreides
Rebecca Ferguson isLady Jessica
Lady Jessica
Oscar Isaac isDuke Leto Atreides
Duke Leto Atreides
Zendaya isChani
Chani
Jason Momoa isDuncan Idaho
Duncan Idaho
Stellan Skarsgård isBaron Vladimir Harkonnen
Baron Vladimir Harkonnen
Josh Brolin isGurney Halleck
Gurney Halleck

Similar titles

Venom: Let There Be Carnage (2021)
World Famous Lover
Kaappaan (2019)
Fanaa
In the Mood for Love (2000)
Come and See (1985)
Narasimham(2000)
Baywatch (2017)
Iron Man 2 (2010)
Vada Chennai (2018)
Precious (2009)
Strawman (1987)
CinemaKottaga