Video Sources 103 Views

  • Watch trailer
Eden Lake (2008)

Eden Lake (2008)

A weekend by the lake, with views to die for.Sep. 12, 2008United Kingdom91 Min.R
Your rating: 0
0 0 votes

Synopsis

Eden Lake is a relentlessly tense and immaculately paced horror-thriller about modern youth gone wild. When a young couple goes to a remote wooded lake for a romantic getaway, their quiet weekend is shattered by an aggressive group of local kids. Rowdiness quickly turns to rage as the teens terrorize the couple in unimaginable ways, and a weekend outing becomes a bloody battle for survival.

Eden Lake (2008) 720p 10bit BluRay 2CH HEVC MPEG7 (528MB)

Source …: Eden.Lake.2008.BluRay.1080p.DTS-HD.MA.5.1.AVC.REMUX-FraMeSToR

Format : Matroska
Format version : Version 4
File size : 529 MiB
Duration : 1 h 31 min
Overall bit rate : 812 kb/s
Movie name : Eden.Lake.2008.720p.10bit.BluRay.x265.2CH.HEVC-MPEG7 | www.cinemakottaga.ml
Encoded date : UTC 2021-07-06 14:11:48
Writing application : mkvmerge v58.0.0 (‘Supper’s Ready’) 64-bit
Writing library : libebml v1.4.2 + libmatroska v1.6.4
Cover : Yes
Attachments : cover.jpg

Video
ID : 1
Format : HEVC
Format/Info : High Efficiency Video Coding
Format profile : Main [email protected]@Main
Codec ID : V_MPEGH/ISO/HEVC
Duration : 1 h 31 min
Bit rate : 746 kb/s
Width : 1 280 pixels
Height : 544 pixels
Display aspect ratio : 2.35:1
Frame rate mode : Constant
Frame rate : 24.000 FPS
Color space : YUV
Chroma subsampling : 4:2:0
Bit depth : 10 bits
Bits/(Pixel*Frame) : 0.045
Stream size : 486 MiB (92%)
Title : MPEG7 | www.cinemakottaga.ml
Default : Yes
Forced : No
Color range : Limited

Audio
ID : 2
Format : Opus
Codec ID : A_OPUS
Duration : 1 h 31 min
Bit rate : 63.0 kb/s
Channel(s) : 2 channels
Channel layout : L R
Sampling rate : 48.0 kHz
Frame rate : 50.000 FPS (960 SPF)
Bit depth : 24 bits
Compression mode : Lossy
Stream size : 41.0 MiB (8%)
Title : MPEG7 | www.cinemakottaga.ml
Language : English
Default : Yes
Forced : No

Text #1
ID : 3
Format : UTF-8
Codec ID : S_TEXT/UTF8
Codec ID/Info : UTF-8 Plain Text
Duration : 1 h 24 min
Bit rate : 30 b/s
Count of elements : 677
Stream size : 19.3 KiB (0%)
Title : MPEG7 | www.cinemakottaga.ml
Language : English
Default : Yes
Forced : No

Text #2
ID : 4
Format : UTF-8
Codec ID : S_TEXT/UTF8
Codec ID/Info : UTF-8 Plain Text
Duration : 1 h 24 min
Bit rate : 93 b/s
Count of elements : 670
Stream size : 58.0 KiB (0%)
Title : MPEG7 | www.cinemakottaga.ml
Language : Malayalam
Default : Yes
Forced : No

 

Eden Lake (2008) 1080p 10bit BluRay 6CH HEVC MPEG7 (1.3GB)

Source …: Eden.Lake.2008.BluRay.1080p.DTS-HD.MA.5.1.AVC.REMUX-FraMeSToR

Format : Matroska
Format version : Version 4
File size : 1.31 GiB
Duration : 1 h 31 min
Overall bit rate : 2 056 kb/s
Movie name : Eden.Lake.2008.1080p.10bit.BluRay.x265.6CH.HEVC-MPEG7 | www.cinemakottaga.ml
Encoded date : UTC 2021-07-06 19:33:56
Writing application : mkvmerge v58.0.0 (‘Supper’s Ready’) 64-bit
Writing library : libebml v1.4.2 + libmatroska v1.6.4
Cover : Yes
Attachments : cover.jpg

Video
ID : 1
Format : HEVC
Format/Info : High Efficiency Video Coding
Format profile : Main [email protected]@Main
Codec ID : V_MPEGH/ISO/HEVC
Duration : 1 h 31 min
Bit rate : 1 825 kb/s
Width : 1 920 pixels
Height : 816 pixels
Display aspect ratio : 2.35:1
Frame rate mode : Constant
Frame rate : 24.000 FPS
Color space : YUV
Chroma subsampling : 4:2:0
Bit depth : 10 bits
Bits/(Pixel*Frame) : 0.049
Stream size : 1.16 GiB (89%)
Title : MPEG7 | www.cinemakottaga.ml
Default : Yes
Forced : No
Color range : Limited

Audio
ID : 2
Format : AAC LC SBR
Format/Info : Advanced Audio Codec Low Complexity with Spectral Band Replication
Commercial name : HE-AAC
Format settings : NBC
Codec ID : A_AAC-5
Duration : 1 h 31 min
Bit rate : 224 kb/s
Channel(s) : 6 channels
Channel layout : C L R Ls Rs LFE
Sampling rate : 48.0 kHz
Frame rate : 23.438 FPS (2048 SPF)
Compression mode : Lossy
Stream size : 146 MiB (11%)
Title : MPEG7 | www.cinemakottaga.ml
Language : English
Default : Yes
Forced : No

Text
ID : 3
Format : PGS
Muxing mode : zlib
Codec ID : S_HDMV/PGS
Codec ID/Info : Picture based subtitle format used on BDs/HD-DVDs
Duration : 1 h 25 min
Bit rate : 18.1 kb/s
Count of elements : 1484
Stream size : 11.0 MiB (1%)
Title : MPEG7 | www.cinemakottaga.ml
Language : English
Default : No
Forced : No

Menu
00:00:00.000 : Chapter 01
00:06:59.208 : Chapter 02
00:16:49.000 : Chapter 03
00:27:29.333 : Chapter 04
00:36:30.208 : Chapter 05
00:45:50.875 : Chapter 06
00:56:13.792 : Chapter 07
01:03:02.042 : Chapter 08
01:12:42.917 : Chapter 09
01:21:04.708 : Chapter 10
01:26:40.542 : Chapter 11

 

 

Telegram  Download Guide  Donate

Eden Lake (2008)
Eden Lake (2008)
Eden Lake (2008)
Eden Lake (2008)
Original title Eden Lake
IMDb Rating 6.8 78,934 votes
TMDb Rating 6.8 1,181 votes

Similar titles

The Voices (2014)
The Truth Beneath (2016)
Joy House
Climax
Welcome Home (2020)
Ko(2011)
The Hitman’s Bodyguard (2017)
Nobody (2021)
L.A. Confidential (1997)
Promising Young Woman (2020)
Adi Kapyare Kootamani (2015)
Love (2020)
CinemaKottaga