Video Sources 417 Views

  • Watch trailer
Ee.Ma.Yau (2018)

Ee.Ma.Yau (2018)

May. 04, 2018India120 Min.N/A
Your rating: 0
0 0 votes

Synopsis

Events unfold between two evenings after the death of a man in a coastal village.

Ee.Ma.Yau (2018) 1080p AMZN WEB-DL HEVC DDP 5.1 PoOlLa (1.3gb)

Format : Matroska
Format version : Version 4
File size : 1.32 GiB
Duration : 2 h 0 min
Overall bit rate : 1 568 kb/s
Movie name : Encoded By PoOlLa
Encoded date : UTC 2020-02-27 10:36:12
Writing application : mkvmerge v39.0.0 (‘In The Waiting Line’) 64-bit
Writing library : libebml v1.3.9 + libmatroska v1.5.2

Video
ID : 1
Format : HEVC
Format/Info : High Efficiency Video Coding
Format profile : [email protected]@High
Codec ID : V_MPEGH/ISO/HEVC
Duration : 2 h 0 min
Bit rate : 1 374 kb/s
Width : 1 920 pixels
Height : 816 pixels
Display aspect ratio : 2.35:1
Frame rate mode : Constant
Frame rate : 24.000 FPS
Color space : YUV
Chroma subsampling : 4:2:0
Bit depth : 8 bits
Bits/(Pixel*Frame) : 0.037
Stream size : 1.15 GiB (88%)
Writing library : x265 3.3+1-g554c887ac:[Windows][MSVC 1924][64 bit] 8bit+10bit+12bit
Default : Yes
Forced : No
Color range : Limited
Color primaries : BT.709
Transfer characteristics : BT.709
Matrix coefficients : BT.709

Audio
ID : 2
Format : E-AC-3
Format/Info : Enhanced AC-3
Commercial name : Dolby Digital Plus
Codec ID : A_EAC3
Duration : 2 h 0 min
Bit rate mode : Constant
Bit rate : 192 kb/s
Channel(s) : 6 channels
Channel layout : L R C LFE Ls Rs
Sampling rate : 48.0 kHz
Frame rate : 31.250 FPS (1536 SPF)
Compression mode : Lossy
Stream size : 165 MiB (12%)
Language : Malay
Service kind : Complete Main
Default : No
Forced : No

Text
ID : 3
Format : UTF-8
Codec ID : S_TEXT/UTF8
Codec ID/Info : UTF-8 Plain Text
Duration : 1 h 44 min
Bit rate : 65 b/s
Count of elements : 1616
Stream size : 49.6 KiB (0%)
Language : English
Default : Yes
Forced : No

Ee.Ma.Yau (2018) 720p AMZN WEB-DL HEVC AAC 2.0 PoOlLa (730mb)

Format : Matroska
Format version : Version 4
File size : 731 MiB
Duration : 2 h 0 min
Overall bit rate : 851 kb/s
Movie name : Encoded By PoOlLa
Encoded date : UTC 2020-02-26 22:15:39
Writing application : mkvmerge v39.0.0 (‘In The Waiting Line’) 64-bit
Writing library : libebml v1.3.9 + libmatroska v1.5.2

Video
ID : 1
Format : HEVC
Format/Info : High Efficiency Video Coding
Format profile : [email protected]@High
Codec ID : V_MPEGH/ISO/HEVC
Duration : 2 h 0 min
Bit rate : 791 kb/s
Width : 1 280 pixels
Height : 544 pixels
Display aspect ratio : 2.35:1
Frame rate mode : Constant
Frame rate : 24.000 FPS
Color space : YUV
Chroma subsampling : 4:2:0
Bit depth : 8 bits
Bits/(Pixel*Frame) : 0.047
Stream size : 679 MiB (93%)
Writing library : x265 3.3+1-g554c887ac:[Windows][MSVC 1924][64 bit] 8bit+10bit+12bit
Default : Yes
Forced : No
Color range : Limited
Color primaries : BT.709
Transfer characteristics : BT.709
Matrix coefficients : BT.709

Audio
ID : 2
Format : AAC LC SBR
Format/Info : Advanced Audio Codec Low Complexity with Spectral Band Replication
Commercial name : HE-AAC
Format settings : Explicit
Codec ID : A_AAC-2
Duration : 2 h 0 min
Bit rate : 58.0 kb/s
Channel(s) : 2 channels
Channel layout : L R
Sampling rate : 48.0 kHz
Frame rate : 23.438 FPS (2048 SPF)
Compression mode : Lossy
Delay relative to video : 23 ms
Stream size : 49.8 MiB (7%)
Language : Malay
Default : No
Forced : No

Text
ID : 3
Format : UTF-8
Codec ID : S_TEXT/UTF8
Codec ID/Info : UTF-8 Plain Text
Duration : 1 h 44 min
Bit rate : 65 b/s
Count of elements : 1616
Stream size : 49.6 KiB (0%)
Language : English
Default : Yes
Forced : No

Telegram  Download Guide  Donate

Ee.Ma.Yau (2018)
Original title ഈ.മ.യൗ
IMDb Rating 8.4 3,155 votes
TMDb Rating 7.6 32 votes

Similar titles

Wind River (2017)
Urumbukal Urangarilla (2015)
Iruvattam Manavatti (2005)
Om Dar-B-Dar (1988)
Nomadland (2020)
Thampu
The Irishman (2019)
Taxi (2015)
There Will Be Blood
Rockstar (2011)
Court (2014)
Boogie Nights (1997)
CinemaKottaga