Video Sources 4015 Views

  • Watch trailer
F9 (2021)

F9 (2021)

Justice is coming.May. 19, 2021United States145 Min.PG-13
Your rating: 0
6 1 vote

Synopsis

Dominic Toretto and his crew battle the most skilled assassin and high-performance driver they’ve ever encountered: his forsaken brother.

F9 The Fast Saga (2021) 2160p AMZN WEB-DL HEVC 10bit SDR DDP 5.1 Atmos PoOlLa (4.7 GB)

Format : Matroska
Format version : Version 4
File size : 4.72 GiB
Duration : 2 h 22 min
Overall bit rate : 4 730 kb/s
Writing application : Lavf58.76.100
Writing library : Lavf58.76.100
Comment : Ripped By PoOlLa @ cinemakottaga.ml
ErrorDetectionType : Per level 1

Video
ID : 1
Format : HEVC
Format/Info : High Efficiency Video Coding
Format profile : Main [email protected]@Main
Codec ID : V_MPEGH/ISO/HEVC
Duration : 2 h 22 min
Bit rate : 3 868 kb/s
Width : 3 836 pixels
Height : 1 600 pixels
Display aspect ratio : 2.40:1
Frame rate mode : Constant
Frame rate : 23.976 (24000/1001) FPS
Color space : YUV
Chroma subsampling : 4:2:0
Bit depth : 10 bits
Bits/(Pixel*Frame) : 0.026
Stream size : 3.86 GiB (82%)
Writing library : Lavc58.134.100 hevc_nvenc
Default : Yes
Forced : No
Color range : Limited
Color primaries : BT.709
Transfer characteristics : BT.709
Matrix coefficients : BT.709

Audio
ID : 2
Format : E-AC-3 JOC
Format/Info : Enhanced AC-3 with Joint Object Coding
Commercial name : Dolby Digital Plus with Dolby Atmos
Codec ID : A_EAC3
Duration : 2 h 22 min
Bit rate mode : Constant
Bit rate : 768 kb/s
Channel(s) : 6 channels
Channel layout : L R C LFE Ls Rs
Sampling rate : 48.0 kHz
Frame rate : 31.250 FPS (1536 SPF)
Bit depth : 32 bits
Compression mode : Lossy
Stream size : 785 MiB (16%)
Service kind : Complete Main
Default : Yes
Forced : No
Complexity index : 16
Number of dynamic objects : 15
Bed channel count : 1 channel
Bed channel configuration : LFE

F9 The Fast Saga (2021) 1080p AMZN WEB-DL HEVC 10bit HDR DDP Atmos 5.1 PoOlLa (2.2 GB)

Format : Matroska
Format version : Version 4
File size : 2.18 GiB
Duration : 2 h 22 min
Overall bit rate : 2 183 kb/s
Writing application : Lavf58.76.100
Writing library : Lavf58.76.100
ErrorDetectionType : Per level 1

Video
ID : 1
Format : HEVC
Format/Info : High Efficiency Video Coding
Format profile : Main [email protected]@High
HDR format : SMPTE ST 2086, HDR10 compatible
Codec ID : V_MPEGH/ISO/HEVC
Duration : 2 h 22 min
Bit rate : 1 372 kb/s
Width : 1 920 pixels
Height : 800 pixels
Display aspect ratio : 2.40:1
Original display aspect rat : 2.40:1
Frame rate mode : Constant
Frame rate : 23.976 (24000/1001) FPS
Color space : YUV
Chroma subsampling : 4:2:0 (Type 2)
Bit depth : 10 bits
Bits/(Pixel*Frame) : 0.037
Stream size : 1.37 GiB (63%)
Writing library : Lavc58.134.100 libx265
Default : Yes
Forced : No
Color range : Limited
Color primaries : BT.2020
Transfer characteristics : PQ
Matrix coefficients : BT.2020 non-constant
Mastering display color pri : Display P3
Mastering display luminance : min: 0.0050 cd/m2, max: 4000 cd/m2
Maximum Content Light Level : 1002 cd/m2
Maximum Frame-Average Light : 701 cd/m2

Audio
ID : 2
Format : E-AC-3 JOC
Format/Info : Enhanced AC-3 with Joint Object Coding
Commercial name : Dolby Digital Plus with Dolby Atmos
Codec ID : A_EAC3
Duration : 2 h 22 min
Bit rate mode : Constant
Bit rate : 768 kb/s
Channel(s) : 6 channels
Channel layout : L R C LFE Ls Rs
Sampling rate : 48.0 kHz
Frame rate : 31.250 FPS (1536 SPF)
Bit depth : 32 bits
Compression mode : Lossy
Stream size : 785 MiB (35%)
Service kind : Complete Main
Default : Yes
Forced : No
Complexity index : 16
Number of dynamic objects : 15
Bed channel count : 1 channel
Bed channel configuration : LFE

F9 The Fast Saga (2021) 1080p AMZN WEB-DL HEVC 10bit DDP 5.1 PoOlLa (2.7 GB)

Format : Matroska
Format version : Version 4
File size : 2.69 GiB
Duration : 2 h 22 min
Overall bit rate : 2 691 kb/s
Writing application : Lavf58.76.100
Writing library : Lavf58.76.100
Comment : Ripped By PoOlLa @ cinemakottaga.ml
ErrorDetectionType : Per level 1

Video
ID : 1
Format : HEVC
Format/Info : High Efficiency Video Coding
Format profile : Main [email protected]@Main
Codec ID : V_MPEGH/ISO/HEVC
Duration : 2 h 22 min
Bit rate : 1 998 kb/s
Width : 1 920 pixels
Height : 800 pixels
Display aspect ratio : 2.40:1
Frame rate mode : Constant
Frame rate : 23.976 (24000/1001) FPS
Color space : YUV
Chroma subsampling : 4:2:0
Bit depth : 10 bits
Bits/(Pixel*Frame) : 0.054
Stream size : 1.99 GiB (74%)
Writing library : Lavc58.134.100 hevc_nvenc
Default : Yes
Forced : No
Color range : Limited
Color primaries : BT.709
Transfer characteristics : BT.709
Matrix coefficients : BT.709

Audio
ID : 2
Format : E-AC-3
Format/Info : Enhanced AC-3
Commercial name : Dolby Digital Plus
Codec ID : A_EAC3
Duration : 2 h 22 min
Bit rate mode : Constant
Bit rate : 640 kb/s
Channel(s) : 6 channels
Channel layout : L R C LFE Ls Rs
Sampling rate : 48.0 kHz
Frame rate : 31.250 FPS (1536 SPF)
Bit depth : 32 bits
Compression mode : Lossy
Stream size : 654 MiB (24%)
Service kind : Complete Main
Default : Yes
Forced : No

Text
ID : 3
Format : UTF-8
Codec ID : S_TEXT/UTF8
Codec ID/Info : UTF-8 Plain Text
Duration : 2 h 22 min
Default : Yes
Forced : No

F9 the Fast Saga (2021) 720p AMZN WEB-DL HEVC 10bit AAC 2.0 PoOlLa (770 MB)

Format : Matroska
Format version : Version 4
File size : 772 MiB
Duration : 2 h 22 min
Overall bit rate : 755 kb/s
Writing application : Lavf58.76.100
Writing library : Lavf58.76.100
ErrorDetectionType : Per level 1

Video
ID : 1
Format : HEVC
Format/Info : High Efficiency Video Coding
Format profile : Main [email protected]@Main
Codec ID : V_MPEGH/ISO/HEVC
Duration : 2 h 22 min
Width : 1 280 pixels
Height : 534 pixels
Display aspect ratio : 2.40:1
Frame rate mode : Constant
Frame rate : 23.976 (24000/1001) FPS
Color space : YUV
Chroma subsampling : 4:2:0
Bit depth : 10 bits
Writing library : Lavc58.134.100 libx265
Default : Yes
Forced : No
Color range : Limited
Color primaries : BT.709
Transfer characteristics : BT.709
Matrix coefficients : BT.709

Audio
ID : 2
Format : AAC LC SBR
Format/Info : Advanced Audio Codec Low Complexity with Spectral Band Replication
Commercial name : HE-AAC
Format settings : NBC
Codec ID : A_AAC-5
Duration : 2 h 22 min
Channel(s) : 2 channels
Channel layout : L R
Sampling rate : 48.0 kHz
Frame rate : 23.438 FPS (2048 SPF)
Compression mode : Lossy
Delay relative to video : -105 ms
Writing library : Lavc58.134.100 libfdk_aac
Default : Yes
Forced : No

Text
ID : 3
Format : UTF-8
Codec ID : S_TEXT/UTF8
Codec ID/Info : UTF-8 Plain Text
Duration : 2 h 22 min
Default : Yes
Forced : No

F9 the Fast Saga (2021) 720p AMZN WEB-DL 6CH HEVC HSB (852 MB)

Source …: F9.the.Fast.Saga.2021.1080p.AMZN.WEB-DL.DDP5.1.H.264-CMRG
Runtime ……: 2h 22min
Video ……..: HEVC | 1280 x 534 | 8bit
Audio ……..: 6CH HE-AAC English
Subs …………: English [SDH]

TG GD

Telegram  Download Guide  Donate

F9 (2021)
F9 (2021)
F9 (2021)
F9 (2021)
F9 (2021)
F9 (2021)
F9 (2021)
F9 (2021)
F9 (2021)
F9 (2021)
Original title F9
IMDb Rating 5.5 38,825 votes
TMDb Rating 7.5 766 votes

Director

Justin Lin
Director

Cast

Vin Diesel isDominic Toretto
Dominic Toretto
Jordana Brewster isMia Toretto
Mia Toretto
Tyrese Gibson isRoman Pearce
Roman Pearce
Ludacris isTej Parker
Tej Parker
John Cena isJakob Toretto
Jakob Toretto
Sung Kang isHan Lue
Han Lue
Helen Mirren isMagdalene 'Queenie' Shaw
Magdalene 'Queenie' Shaw

Similar titles

Seetimaarr (2021)
Rebel (2012)
Power Play (2021)
Lelam
Back to the Future Part III (1990)
Memories (2013)
Salaam Bombay (1988)
Baaghi (2016)
The Green Knight (2021)
Yutham Sei (2011)
Iron Man (2008)
Harikrishnans (1998)
CinemaKottaga