Video Sources 167 Views

  • Watch trailer
Gandhi (1982)

Gandhi (1982)

His triumph changed the world forever.Nov. 30, 1982United Kingdom191 Min.PG
Your rating: 0
8 1 vote

Synopsis

In the early years of the 20th century, Mohandas K. Gandhi, a British-trained lawyer, forsakes all worldly possessions to take up the cause of Indian independence. Faced with armed resistance from the British government, Gandhi adopts a policy of ‘passive resistance’, endeavouring to win freedom for his people without resorting to bloodshed.

Gandhi (1982) 2160p UHD BRrip HEVC 10bit HDR AAC 7.1 PoOlLa (3.7 GB)

Format : Matroska
Format version : Version 4
File size : 3.70 GiB
Duration : 3 h 11 min
Overall bit rate : 2 767 kb/s
Writing application : mkvmerge v59.0.0 (‘Shining Star’) 64-bit
Writing library : libebml v1.4.2 + libmatroska v1.6.4

Video
ID : 1
Format : HEVC
Format/Info : High Efficiency Video Coding
Format profile : Main 10@L5@High
HDR format : SMPTE ST 2086, HDR10 compatible
Codec ID : V_MPEGH/ISO/HEVC
Duration : 3 h 11 min
Bit rate : 2 324 kb/s
Width : 3 840 pixels
Height : 1 604 pixels
Display aspect ratio : 2.40:1
Frame rate mode : Constant
Frame rate : 23.976 (24000/1001) FPS
Color space : YUV
Chroma subsampling : 4:2:0 (Type 2)
Bit depth : 10 bits
Bits/(Pixel*Frame) : 0.016
Stream size : 3.10 GiB (84%)
Title : Encoded by PoOlLa | cinemakottaga.ml
Color range : Limited
Color primaries : BT.2020
Transfer characteristics : PQ
Matrix coefficients : BT.2020 non-constant
Mastering display color pri : Display P3
Mastering display luminance : min: 0.0050 cd/m2, max: 4000 cd/m2
Maximum Content Light Level : 3991 cd/m2
Maximum Frame-Average Light : 240 cd/m2

Audio
ID : 2
Format : AAC LC
Format/Info : Advanced Audio Codec Low Complexity
Codec ID : A_AAC-2
Duration : 3 h 11 min
Bit rate : 440 kb/s
Channel(s) : 8 channels
Channel layout : C L R Ls Rs Lb Rb LFE
Sampling rate : 48.0 kHz
Frame rate : 46.875 FPS (1024 SPF)
Compression mode : Lossy
Delay relative to video : 20 ms
Stream size : 602 MiB (16%)
Language : English

Text
ID : 3
Format : UTF-8
Codec ID : S_TEXT/UTF8
Language : English

Gandhi (1982) 1080p UHD BRrip HEVC 10bit HDR AAC 5.1 PoOlLa (1.7 GB)

Format : Matroska
Format version : Version 4
File size : 1.75 GiB
Duration : 3 h 11 min
Overall bit rate : 1 311 kb/s
Writing application : mkvmerge v59.0.0 (‘Shining Star’) 64-bit
Writing library : libebml v1.4.2 + libmatroska v1.6.4

Video
ID : 1
Format : HEVC
Format/Info : High Efficiency Video Coding
Format profile : Main 10@L4@High
HDR format : SMPTE ST 2086, HDR10 compatible
Codec ID : V_MPEGH/ISO/HEVC
Duration : 3 h 11 min
Bit rate : 1 066 kb/s
Width : 1 920 pixels
Height : 802 pixels
Display aspect ratio : 2.40:1
Frame rate mode : Constant
Frame rate : 23.976 (24000/1001) FPS
Color space : YUV
Chroma subsampling : 4:2:0 (Type 2)
Bit depth : 10 bits
Bits/(Pixel*Frame) : 0.029
Stream size : 1.42 GiB (81%)
Title : Encoded by PoOlLa | cinemakottaga.ml
Color range : Limited
Color primaries : BT.2020
Transfer characteristics : PQ
Matrix coefficients : BT.2020 non-constant
Mastering display color pri : Display P3
Mastering display luminance : min: 0.0050 cd/m2, max: 4000 cd/m2
Maximum Content Light Level : 3991 cd/m2
Maximum Frame-Average Light : 240 cd/m2

Audio
ID : 2
Format : AAC LC
Format/Info : Advanced Audio Codec Low Complexity
Codec ID : A_AAC-2
Duration : 3 h 11 min
Bit rate : 242 kb/s
Channel(s) : 6 channels
Channel layout : C L R Ls Rs LFE
Sampling rate : 48.0 kHz
Frame rate : 46.875 FPS (1024 SPF)
Compression mode : Lossy
Delay relative to video : 20 ms
Stream size : 331 MiB (18%)
Language : English

Text
ID : 3
Format : UTF-8
Codec ID : S_TEXT/UTF8
Stream size : 65.3 KiB (0%)
Language : English

Gandhi (1982) 720p BRrip HEVC 10bit AAC 2.0 PoOlLa (900 MB)

Format : Matroska
Format version : Version 4
File size : 904 MiB
Duration : 3 h 11 min
Overall bit rate : 661 kb/s
Writing application : mkvmerge v59.0.0 (‘Shining Star’) 64-bit
Writing library : libebml v1.4.2 + libmatroska v1.6.4

Video
ID : 1
Format : HEVC
Format/Info : High Efficiency Video Coding
Format profile : Main 10@L3.1@Main
Codec ID : V_MPEGH/ISO/HEVC
Duration : 3 h 11 min
Bit rate : 593 kb/s
Width : 1 280 pixels
Height : 544 pixels
Display aspect ratio : 2.35:1
Frame rate mode : Constant
Frame rate : 23.976 (24000/1001) FPS
Color space : YUV
Chroma subsampling : 4:2:0
Bit depth : 10 bits
Bits/(Pixel*Frame) : 0.036
Stream size : 811 MiB (90%)
Title : Encoded by PoOlLa | cinemakottaga.ml
Color range : Limited
Color primaries : BT.709
Transfer characteristics : BT.709
Matrix coefficients : BT.709

Audio
ID : 2
Format : AAC LC SBR
Format/Info : Advanced Audio Codec Low Complexity with Spectral Band Replication
Commercial name : HE-AAC
Format settings : Explicit
Codec ID : A_AAC-2
Duration : 3 h 11 min
Bit rate : 66.2 kb/s
Channel(s) : 2 channels
Channel layout : L R
Sampling rate : 48.0 kHz
Frame rate : 23.438 FPS (2048 SPF)
Compression mode : Lossy
Delay relative to video : 40 ms
Stream size : 90.9 MiB (10%)
Language : English

Text
ID : 3
Format : UTF-8
Codec ID : S_TEXT/UTF8
Stream size : 65.3 KiB (0%)
Language : English

Telegram  Download Guide  Donate

Gandhi (1982)
Gandhi (1982)
Gandhi (1982)
Gandhi (1982)
Gandhi (1982)
Gandhi (1982)
Gandhi (1982)
Gandhi (1982)
Original title Gandhi
IMDb Rating 8 224,276 votes
TMDb Rating 7.5 1,778 votes

Director

Cast

Ben Kingsley isMahatma Gandhi
Mahatma Gandhi
Candice Bergen isMargaret Bourke-White
Margaret Bourke-White
Edward Fox isGeneral Dyer
General Dyer
John Gielgud isLord Irwin
Lord Irwin
Trevor Howard isJudge Broomfield
Judge Broomfield
John Mills isLord Chelmsford
Lord Chelmsford
Martin Sheen isVince Walker
Vince Walker
Ian Charleson isReverend Charlie Andrews
Reverend Charlie Andrews
Athol Fugard isGeneral Jan Christiaan Smuts
General Jan Christiaan Smuts
Günther Maria Halmer isDr. Herman Kallenbach
Dr. Herman Kallenbach

Similar titles

Kaaryasthan(2010)
The Shepherdess and the Seven Songs (2020)
12 (2007)
Felicia’s Journey (1999)
Chess (2006)
Rabbit Hole (2010)
Ente Ummante Peru (2018)
Nanban (2012)
Mirage (2018)
Mimi (2021)
Toto the Hero
Me and Earl and the Dying Girl (2015)
CinemaKottaga