Video Sources 88 Views

  • Watch trailer
Ghost (1990)

Ghost (1990)

A love that will last forever.Jul. 12, 1990United States127 Min.PG-13
Your rating: 0
0 0 votes

Synopsis

Sam Wheat is a banker, Molly Jensen is an artist, and the two are madly in love. However, when Sam is murdered by his friend and corrupt business partner Carl Bruner over a shady business deal, he is left to roam the earth as a powerless spirit. When he learns of Carl’s betrayal, Sam must seek the help of psychic Oda Mae Brown to set things right and protect Molly from Carl and his goons.

Ghost (1990) 4K REMASTERED 720p 10bit BluRay 2CH HEVC MPEG7 (642MB)

Source …: Ghost.1990.REPACK.4K.Remaster.1080p.BluRay.Remux.AVC.TrueHD.5.1

Format : Matroska
Format version : Version 4
File size : 642 MiB
Duration : 2 h 6 min
Overall bit rate : 709 kb/s
Movie name : MPEG7 | Ghost.1990.Remastered.720p.10bit.BluRay.x265.2CH.HEVC-MPEG7 | www.cinemakottaga.ml
Encoded date : UTC 2021-09-14 08:30:06
Writing application : mkvmerge v61.0.0 (‘So’) 64-bit
Writing library : libebml v1.4.2 + libmatroska v1.6.4
Cover : Yes
Attachments : cover.jpg

Video
ID : 1
Format : HEVC
Format/Info : High Efficiency Video Coding
Format profile : Main [email protected]@Main
Codec ID : V_MPEGH/ISO/HEVC
Duration : 2 h 6 min
Bit rate : 637 kb/s
Width : 1 280 pixels
Height : 720 pixels
Display aspect ratio : 16:9
Frame rate mode : Constant
Frame rate : 23.976 (24000/1001) FPS
Color space : YUV
Chroma subsampling : 4:2:0
Bit depth : 10 bits
Bits/(Pixel*Frame) : 0.029
Stream size : 577 MiB (90%)
Title : MPEG7 | www.cinemakottaga.ml
Default : Yes
Forced : No
Color range : Limited
Color primaries : BT.709
Transfer characteristics : BT.709
Matrix coefficients : BT.709

Audio
ID : 2
Format : AAC LC SBR
Format/Info : Advanced Audio Codec Low Complexity with Spectral Band Replication
Commercial name : HE-AAC
Format settings : NBC
Codec ID : A_AAC-5
Duration : 2 h 6 min
Bit rate : 70.0 kb/s
Channel(s) : 2 channels
Channel layout : L R
Sampling rate : 48.0 kHz
Frame rate : 23.438 FPS (2048 SPF)
Compression mode : Lossy
Delay relative to video : -105 ms
Stream size : 63.4 MiB (10%)
Title : MPEG7 | www.cinemakottaga.ml
Language : English
Default : Yes
Forced : No

Text
ID : 3
Format : UTF-8
Codec ID : S_TEXT/UTF8
Codec ID/Info : UTF-8 Plain Text
Duration : 1 h 59 min
Bit rate : 55 b/s
Count of elements : 1416
Stream size : 48.3 KiB (0%)
Title : MPEG7 | www.cinemakottaga.ml
Language : English
Default : Yes
Forced : No

 

Ghost (1990) 4K REMASTERED 1080p 10bit BluRay 6CH HEVC MPEG7 (2.3GB)

Source …: Ghost.1990.REPACK.4K.Remaster.1080p.BluRay.Remux.AVC.TrueHD.5.1

Format : Matroska
Format version : Version 4
File size : 2.24 GiB
Duration : 2 h 6 min
Overall bit rate : 2 532 kb/s
Movie name : MPEG7 | Ghost.1990.Remastered.1080p.10bit.BluRay.x265.6CH.HEVC-MPEG7 | www.cinemakottaga.ml
Encoded date : UTC 2021-09-14 18:10:39
Writing application : mkvmerge v61.0.0 (‘So’) 64-bit
Writing library : libebml v1.4.2 + libmatroska v1.6.4
Cover : Yes
Attachments : cover.jpg

Video
ID : 1
Format : HEVC
Format/Info : High Efficiency Video Coding
Format profile : Main [email protected]@Main
Codec ID : V_MPEGH/ISO/HEVC
Duration : 2 h 6 min
Bit rate : 2 059 kb/s
Width : 1 920 pixels
Height : 1 080 pixels
Display aspect ratio : 16:9
Frame rate mode : Constant
Frame rate : 23.976 (24000/1001) FPS
Color space : YUV
Chroma subsampling : 4:2:0
Bit depth : 10 bits
Bits/(Pixel*Frame) : 0.041
Stream size : 1.82 GiB (81%)
Title : MPEG7 | www.cinemakottaga.ml
Default : Yes
Forced : No
Color range : Limited
Color primaries : BT.709
Transfer characteristics : BT.709
Matrix coefficients : BT.709

Audio
ID : 2
Format : AAC LC
Format/Info : Advanced Audio Codec Low Complexity
Codec ID : A_AAC-2
Duration : 2 h 6 min
Bit rate : 448 kb/s
Channel(s) : 6 channels
Channel layout : C L R Ls Rs LFE
Sampling rate : 48.0 kHz
Frame rate : 46.875 FPS (1024 SPF)
Compression mode : Lossy
Stream size : 406 MiB (18%)
Title : MPEG7 | www.cinemakottaga.ml
Language : English
Default : Yes
Forced : No

Text #1
ID : 3
ID in the original source m : 4608 (0x1200)
Format : PGS
Muxing mode : zlib
Codec ID : S_HDMV/PGS
Codec ID/Info : Picture based subtitle format used on BDs/HD-DVDs
Duration : 1 h 59 min
Bit rate : 35.5 kb/s
Count of elements : 2840
Stream size : 30.3 MiB (1%)
Title : MPEG7 | www.cinemakottaga.ml
Language : English
Default : No
Forced : No
Original source medium : Blu-ray

Text #2
ID : 4
ID in the original source m : 4609 (0x1201)
Format : PGS
Muxing mode : zlib
Codec ID : S_HDMV/PGS
Codec ID/Info : Picture based subtitle format used on BDs/HD-DVDs
Duration : 1 h 59 min
Bit rate : 38.4 kb/s
Count of elements : 3120
Stream size : 32.8 MiB (1%)
Title : MPEG7 | www.cinemakottaga.ml
Language : English
Default : No
Forced : No
Original source medium : Blu-ray

Menu
00:00:00.000 : 01. Opening Credits
00:11:06.582 : 02. Unchained Melody
00:17:17.161 : 03. Afterlife
00:32:05.715 : 04. Willie Lopez
00:37:41.884 : 05. Oda Mae Brown
00:47:03.654 : 06. Molly in Danger
01:12:22.880 : 07. The Art of Being a Ghost
01:18:01.385 : 08. A Gathering of Ghosts
01:22:15.931 : 09. Rita Miller
01:34:30.081 : 10. Murderer!!
01:38:53.218 : 11. Spooked
01:44:25.801 : 12. Convincing Molly
01:49:08.625 : 13. Oda Mae Brown Possessed
01:52:13.059 : 14. Carl
01:57:39.510 : 15. Believe…
02:02:14.952 : 16. End Credits

 

 

Telegram  Download Guide  Donate

Ghost (1990)
Ghost (1990)
Ghost (1990)
Ghost (1990)
Ghost (1990)
Ghost (1990)
Original title Ghost
IMDb Rating 7.1 205,142 votes
TMDb Rating 7.2 4,279 votes

Director

Cast

Demi Moore isMolly Jensen
Molly Jensen
Whoopi Goldberg isOda Mae Brown
Oda Mae Brown
Tony Goldwyn isCarl Bruner
Carl Bruner
Vincent Schiavelli isSubway Ghost
Subway Ghost
Rick Aviles isWillie Lopez
Willie Lopez
Phil Leeds isEmergency Room Ghost
Emergency Room Ghost
Armelia McQueen isOda Mae's Sister
Oda Mae's Sister

Similar titles

The Housekeeper (2002)
The Burmese Harp (1956)
Rabbit Hole (2010)
Kong: Skull Island (2017)
Twenty Hacker (2021)
Fury (2014)
Maheshinte Prathikaaram (2016)
Punnagai Mannan (1986)
Rappakal (2005)
Falling (2020)
Madrasapattinam (2010)
Psycho (2020)
CinemaKottaga