Video Sources 220 Views

  • Watch trailer
Greenland (2020)

Greenland (2020)

Jul. 29, 2020United States120 Min.PG-13
Your rating: 0
6 1 vote

Synopsis

John Garrity, his estranged wife and their young son embark on a perilous journey to find sanctuary as a planet-killing comet hurtles toward Earth. Amid terrifying accounts of cities getting levelled, the Garrity’s experience the best and worst in humanity. As the countdown to the global apocalypse approaches zero, their incredible trek culminates in a desperate and last-minute flight to a possible safe haven.

Greenland.2020.720p.10bit.BluRay.HEVC-MPEG7 (480MB)

Source …: Greenland.2020.1080p.BluRay.Remux.AVC.DTS-HDMA.5.1-BDR

Format : Matroska
Format version : Version 4
File size : 480 MiB
Duration : 1 h 59 min
Overall bit rate : 562 kb/s
Movie name : MPEG7 | Greenland.2020.720p.10bit.BluRay.HEVC-MPEG7 – cinemakotta.ga
Encoded date : UTC 2020-11-25 11:42:12
Writing application : mkvmerge v51.0.0 (‘I Wish’) 64-bit
Writing library : libebml v1.4.0 + libmatroska v1.6.2
Cover : Yes
Attachments : cover.jpg

Video
ID : 1
Format : HEVC
Format/Info : High Efficiency Video Coding
Format profile : Main 10@L4@High
Codec ID : V_MPEGH/ISO/HEVC
Duration : 1 h 59 min
Bit rate : 500 kb/s
Width : 1 280 pixels
Height : 536 pixels
Display aspect ratio : 2.40:1
Frame rate mode : Constant
Frame rate : 23.976 (24000/1001) FPS
Color space : YUV
Chroma subsampling : 4:2:0
Bit depth : 10 bits
Bits/(Pixel*Frame) : 0.030
Stream size : 427 MiB (89%)
Title : MPEG7 | www.cinemakotta.ga
Default : Yes
Forced : No
Color range : Limited
Color primaries : BT.709
Transfer characteristics : BT.709
Matrix coefficients : BT.709

Audio
ID : 2
Format : AAC LC SBR
Format/Info : Advanced Audio Codec Low Complexity with Spectral Band Replication
Commercial name : HE-AAC
Format settings : Explicit
Codec ID : A_AAC-2
Duration : 1 h 59 min
Bit rate : 60.0 kb/s
Channel(s) : 2 channels
Channel layout : L R
Sampling rate : 48.0 kHz
Frame rate : 23.438 FPS (2048 SPF)
Compression mode : Lossy
Stream size : 51.3 MiB (11%)
Title : MPEG7 | cinemakotta.ga
Language : English
Default : Yes
Forced : No

Text
ID : 3
Format : UTF-8
Codec ID : S_TEXT/UTF8
Codec ID/Info : UTF-8 Plain Text
Duration : 1 h 54 min
Bit rate : 58 b/s
Count of elements : 1498
Stream size : 48.8 KiB (0%)
Title : MPEG7 | cinemakotta.ga
Language : English
Default : No
Forced : No

 

Greenland.2020.1080p.10bit.BluRay.6CH.HEVC-MPEG7 (1.9GB)

Source …: Greenland.2020.1080p.BluRay.Remux.AVC.DTS-HDMA.5.1-BDR

Format : Matroska
Format version : Version 4
File size : 1.90 GiB
Duration : 1 h 59 min
Overall bit rate : 2 273 kb/s
Movie name : MPEG7 | Greenland.2020.1080p.10bit.BluRay.6CH.HEVC-MPEG7 – www.cinemakotta.ga
Encoded date : UTC 2020-11-25 16:05:12
Writing application : mkvmerge v51.0.0 (‘I Wish’) 64-bit
Writing library : libebml v1.4.0 + libmatroska v1.6.2
Cover : Yes
Attachments : cover.jpg

Video
ID : 1
Format : HEVC
Format/Info : High Efficiency Video Coding
Format profile : Main 10@L4@High
Codec ID : V_MPEGH/ISO/HEVC
Duration : 1 h 59 min
Bit rate : 1 989 kb/s
Width : 1 920 pixels
Height : 808 pixels
Display aspect ratio : 2.40:1
Frame rate mode : Constant
Frame rate : 23.976 (24000/1001) FPS
Color space : YUV
Chroma subsampling : 4:2:0
Bit depth : 10 bits
Bits/(Pixel*Frame) : 0.053
Stream size : 1.66 GiB (88%)
Title : MPEG7 | www.cinemakotta.ga
Default : Yes
Forced : No
Color range : Limited
Color primaries : BT.709
Transfer characteristics : BT.709
Matrix coefficients : BT.709

Audio
ID : 2
Format : AAC LC
Format/Info : Advanced Audio Codec Low Complexity
Codec ID : A_AAC-2
Duration : 1 h 59 min
Bit rate : 281 kb/s
Channel(s) : 6 channels
Channel layout : C L R Ls Rs LFE
Sampling rate : 48.0 kHz
Frame rate : 46.875 FPS (1024 SPF)
Compression mode : Lossy
Delay relative to video : 20 ms
Stream size : 240 MiB (12%)
Title : MPEG7 | www.cinemakotta.ga
Language : English
Default : Yes
Forced : No

Text
ID : 3
Format : UTF-8
Codec ID : S_TEXT/UTF8
Codec ID/Info : UTF-8 Plain Text
Duration : 1 h 54 min
Bit rate : 58 b/s
Count of elements : 1498
Stream size : 48.8 KiB (0%)
Title : MPEG7 | www.cinemakotta.ga
Language : English
Default : No
Forced : No

 




 

Telegram  Download Guide  Donate

Greenland (2020)
Greenland (2020)
Greenland (2020)
Greenland (2020)
Greenland (2020)
Greenland (2020)
Greenland (2020)
Greenland (2020)
Greenland (2020)
Greenland (2020)
Original title Greenland
IMDb Rating 6.4 57,319 votes
TMDb Rating 7.2 646 votes

Director

Cast

Gerard Butler isJohn Garrity
John Garrity
Morena Baccarin isAllison Garrity
Allison Garrity
David Denman isRalph Vento
Ralph Vento
Hope Davis isJudy Vento
Judy Vento
Roger Dale Floyd isNathan Garrity
Nathan Garrity
Merrin Dungey isMajor Breen
Major Breen
Holt McCallany isTwin Otter Pilot
Twin Otter Pilot
Gary Weeks isEd Pruitt
Ed Pruitt

Similar titles

Krack (2021)
A Pure Formality (1994)
The Great Wall (2016)
Fury (2014)
Curse of the Golden Flower (2006)
Malignant (2021)
Diabolically Yours
Automata (2014)
13aam Number Veedu (2020)
The Fast and the Furious: Tokyo Drift (2006)
Kala (2021)
7th Day (2014)
CinemaKottaga