Video Sources 444 Views

  • Watch trailer
Gunpowder Milkshake (2021)

Gunpowder Milkshake (2021)

Revenge is best served ice cold.Jul. 15, 2021France114 Min.R
Your rating: 0
10 1 vote

Synopsis

In her turbulent life as a professional assassin, Scarlet was cruelly forced to abandon her daughter Sam and go on the run. Years later, despite the estrangement, Sam has also grown up into a cold blooded hitwoman. After a high-stake mission spins out of control, putting an innocent 8-year-old girl in the middle of the gang war she has unleashed, Sam has no choice but to go rogue. This ultimately leads her back to her mother and her former hitwomen sidekicks, who all join forces in an avenging war against those who took everything from them.

Gunpowder Milkshake (2021) 720p 10bit BluRay 2CH HEVC MPEG7 (572MB)

Source …: Gunpowder.Milkshake.2021.1080p.BluRay.REMUX.AVC.DTS-HD.MA.5.1-FGT

Format : Matroska
Format version : Version 4
File size : 572 MiB
Duration : 1 h 54 min
Overall bit rate : 697 kb/s
Movie name : MPEG7 | Gunpowder.Milkshake.2021.720p.10bit.BluRay.x265.2CH.HEVC-MPEG7 | www.cinemakottaga.ml
Encoded date : UTC 2021-10-11 13:38:29
Writing application : mkvmerge v62.0.0 (‘Apollo’) 64-bit
Writing library : libebml v1.4.2 + libmatroska v1.6.4
Cover : Yes
Attachments : cover.jpg

Video
ID : 1
Format : HEVC
Format/Info : High Efficiency Video Coding
Format profile : Main [email protected]@Main
Codec ID : V_MPEGH/ISO/HEVC
Duration : 1 h 54 min
Bit rate : 635 kb/s
Width : 1 280 pixels
Height : 534 pixels
Display aspect ratio : 2.40:1
Frame rate mode : Constant
Frame rate : 24.000 FPS
Color space : YUV
Chroma subsampling : 4:2:0
Bit depth : 10 bits
Bits/(Pixel*Frame) : 0.039
Stream size : 521 MiB (91%)
Title : MPEG7 | www.cinemakottaga.ml
Default : Yes
Forced : No
Color range : Limited
Color primaries : BT.709
Transfer characteristics : BT.709
Matrix coefficients : BT.709

Audio
ID : 2
Format : AAC LC SBR
Format/Info : Advanced Audio Codec Low Complexity with Spectral Band Replication
Commercial name : HE-AAC
Format settings : Explicit
Codec ID : A_AAC-2
Duration : 1 h 54 min
Bit rate : 60.0 kb/s
Channel(s) : 2 channels
Channel layout : L R
Sampling rate : 48.0 kHz
Frame rate : 23.438 FPS (2048 SPF)
Compression mode : Lossy
Delay relative to video : -105 ms
Stream size : 49.2 MiB (9%)
Title : MPEG7 | www.cinemakottaga.ml
Language : English
Default : Yes
Forced : No

Text
ID : 3
Format : UTF-8
Codec ID : S_TEXT/UTF8
Codec ID/Info : UTF-8 Plain Text
Duration : 1 h 48 min
Bit rate : 34 b/s
Count of elements : 772
Stream size : 27.2 KiB (0%)
Title : MPEG7 | www.cinemakottaga.ml
Language : English
Default : Yes
Forced : No

 

Download

Password – f**kbots

Gunpowder Milkshake (2021) 1080p 10bit BluRay 6CH HEVC MPEG7 (1.4GB)

Source …: Gunpowder.Milkshake.2021.1080p.BluRay.REMUX.AVC.DTS-HD.MA.5.1-FGT

Format : Matroska
Format version : Version 4
File size : 1.43 GiB
Duration : 1 h 54 min
Overall bit rate : 1 782 kb/s
Movie name : MPEG7 | Gunpowder.Milkshake.2021.1080p.10bit.BluRay.x265.6CH.HEVC-MPEG7 | www.cinemakottaga.ml
Encoded date : UTC 2021-10-11 18:11:32
Writing application : mkvmerge v62.0.0 (‘Apollo’) 64-bit
Writing library : libebml v1.4.2 + libmatroska v1.6.4
Cover : Yes
Attachments : cover.jpg

Video
ID : 1
Format : HEVC
Format/Info : High Efficiency Video Coding
Format profile : Main [email protected]@High
Codec ID : V_MPEGH/ISO/HEVC
Duration : 1 h 54 min
Bit rate : 1 524 kb/s
Width : 1 920 pixels
Height : 800 pixels
Display aspect ratio : 2.40:1
Frame rate mode : Constant
Frame rate : 24.000 FPS
Color space : YUV
Chroma subsampling : 4:2:0
Bit depth : 10 bits
Bits/(Pixel*Frame) : 0.041
Stream size : 1.22 GiB (86%)
Title : MPEG7 | www.cinemakottaga.ml
Default : Yes
Forced : No
Color range : Limited

Audio
ID : 2
Format : AAC LC SBR
Format/Info : Advanced Audio Codec Low Complexity with Spectral Band Replication
Commercial name : HE-AAC
Format settings : NBC
Codec ID : A_AAC-5
Duration : 1 h 54 min
Bit rate : 256 kb/s
Channel(s) : 6 channels
Channel layout : C L R Ls Rs LFE
Sampling rate : 48.0 kHz
Frame rate : 23.438 FPS (2048 SPF)
Compression mode : Lossy
Stream size : 210 MiB (14%)
Title : MPEG7 | www.cinemakottaga.ml
Language : English
Default : Yes
Forced : No

Text
ID : 3
Format : UTF-8
Codec ID : S_TEXT/UTF8
Codec ID/Info : UTF-8 Plain Text
Duration : 1 h 48 min
Bit rate : 34 b/s
Count of elements : 772
Stream size : 27.2 KiB (0%)
Title : MPEG7 | www.cinemakottaga.ml
Language : English
Default : Yes
Forced : No

 

Download

Password – f**kbots

Gunpowder Milkshake (2021) 720p 10bit NF WEB-DL 2CH HEVC HSB (586 MB)

Source …: Gunpowder.Milkshake.2021.1080p.NF.WEB-DL.DDP5.1.Atmos.x264-CMRG
Runtime ……: 1h 54min
Video ……..: HEVC | 1280 x 534 | 10bit
Audio ……..: 2CH HE-AAC English
Subs …………: English

TG GD

Telegram  Download Guide  Donate

Gunpowder Milkshake (2021)
Gunpowder Milkshake (2021)
Gunpowder Milkshake (2021)
Gunpowder Milkshake (2021)
Gunpowder Milkshake (2021)
Gunpowder Milkshake (2021)
Gunpowder Milkshake (2021)
Gunpowder Milkshake (2021)
Gunpowder Milkshake (2021)
Gunpowder Milkshake (2021)
Original title Gunpowder Milkshake
IMDb Rating N/A N/A votes
TMDb Rating 7.6 12 votes

Director

Cast

Similar titles

Maanagaram (2017)
Fist of Fury (1972)
Burning (2018)
Death of a Corrupt Man
Clue (1985)
Tom Clancy’s Without Remorse (2021)
Bhramaram(2009)
School’s Out Forever (2021)
Lelam
The Prestige (2006)
Flic Story
Frailty (2001)
CinemaKottaga