Video Sources 82 Views

  • Watch trailer
Hedwig and the Angry Inch (2001)

Hedwig and the Angry Inch (2001)

An anatomically incorrect rock odysseyJul. 20, 2001United States95 Min.R
Your rating: 0
0 0 votes

Synopsis

Raised a boy in East Berlin, Hedwig undergoes a personal transformation in order to emigrate to the U.S., where she reinvents herself as an “internationally ignored” but divinely talented rock diva, inhabiting a “beautiful gender of one.”

Hedwig and the Angry Inch (2001) 1080p Criterion BRrip HEVC 10bit AAC 5.1 PoOlLa (1.4 GB)

Format : Matroska
Format version : Version 4
File size : 1.42 GiB
Duration : 1 h 31 min
Overall bit rate : 2 223 kb/s
Encoded date : UTC 2021-07-20 05:31:15
Writing application : mkvmerge v56.1.0 (‘My Friend’) 64-bit
Writing library : libebml v1.4.2 + libmatroska v1.6.4

Video
ID : 1
Format : HEVC
Format/Info : High Efficiency Video Coding
Format profile : Main [email protected]@Main
Codec ID : V_MPEGH/ISO/HEVC
Duration : 1 h 31 min
Bit rate : 1 900 kb/s
Width : 1 920 pixels
Height : 1 036 pixels
Display aspect ratio : 1.85:1
Frame rate mode : Variable
Frame rate : 23.976 FPS
Color space : YUV
Chroma subsampling : 4:2:0
Bit depth : 10 bits
Bits/(Pixel*Frame) : 0.040
Stream size : 1.22 GiB (85%)
Default : Yes
Forced : No
Color range : Limited

Audio
ID : 2
Format : AAC LC
Format/Info : Advanced Audio Codec Low Complexity
Codec ID : A_AAC-2
Duration : 1 h 31 min
Bit rate : 320 kb/s
Channel(s) : 6 channels
Channel layout : C L R Ls Rs LFE
Sampling rate : 48.0 kHz
Frame rate : 46.875 FPS (1024 SPF)
Compression mode : Lossy
Stream size : 210 MiB (14%)
Default : Yes
Forced : No

Text
ID : 3
Format : UTF-8
Codec ID : S_TEXT/UTF8
Codec ID/Info : UTF-8 Plain Text
Duration : 1 h 29 min
Bit rate : 60 b/s
Count of elements : 1076
Stream size : 39.9 KiB (0%)
Language : English
Default : Yes
Forced : No

Hedwig and the Angry Inch (2001) 720p Criterion BRrip HEVC 10bit AAC 2.0 PoOlLa (545 MB)

Format : Matroska
Format version : Version 4
File size : 547 MiB
Duration : 1 h 31 min
Overall bit rate : 835 kb/s
Encoded date : UTC 2021-07-20 05:31:06
Writing application : mkvmerge v56.1.0 (‘My Friend’) 64-bit
Writing library : libebml v1.4.2 + libmatroska v1.6.4

Video
ID : 1
Format : HEVC
Format/Info : High Efficiency Video Coding
Format profile : Main [email protected]@Main
Codec ID : V_MPEGH/ISO/HEVC
Duration : 1 h 31 min
Bit rate : 768 kb/s
Width : 1 280 pixels
Height : 690 pixels
Display aspect ratio : 1.85:1
Frame rate mode : Variable
Frame rate : 23.976 (23976/1000) FPS
Original frame rate : 23.976 (24000/1001) FPS
Color space : YUV
Chroma subsampling : 4:2:0
Bit depth : 10 bits
Bits/(Pixel*Frame) : 0.036
Stream size : 503 MiB (92%)
Default : Yes
Forced : No
Color range : Limited

Audio
ID : 2
Format : AAC LC
Format/Info : Advanced Audio Codec Low Complexity
Codec ID : A_AAC-2
Duration : 1 h 31 min
Bit rate : 64.0 kb/s
Channel(s) : 2 channels
Channel layout : L R
Sampling rate : 48.0 kHz
Frame rate : 46.875 FPS (1024 SPF)
Compression mode : Lossy
Stream size : 41.9 MiB (8%)
Default : Yes
Forced : No

Text
ID : 3
Format : UTF-8
Codec ID : S_TEXT/UTF8
Codec ID/Info : UTF-8 Plain Text
Duration : 1 h 29 min
Bit rate : 60 b/s
Count of elements : 1076
Stream size : 39.9 KiB (0%)
Language : English
Default : Yes
Forced : No

Telegram  Download Guide  Donate

Hedwig and the Angry Inch (2001)
Hedwig and the Angry Inch (2001)
Hedwig and the Angry Inch (2001)
Hedwig and the Angry Inch (2001)
Hedwig and the Angry Inch (2001)
Hedwig and the Angry Inch (2001)
Hedwig and the Angry Inch (2001)
Hedwig and the Angry Inch (2001)
Hedwig and the Angry Inch (2001)
Hedwig and the Angry Inch (2001)
Original title Hedwig and the Angry Inch
IMDb Rating 7.7 32,557 votes
TMDb Rating 7.6 240 votes

Director

Cast

Rob Campbell isKrzysztof
Krzysztof
Andrea Martin isPhyllis Stein
Phyllis Stein
Ben Mayer-Goodman isHansel - 6 years old
Hansel - 6 years old
Alberta Watson isHansel's Mom
Hansel's Mom
Gene Pyrz isHansel's Dad
Hansel's Dad

Similar titles

School’s Out Forever (2021)
Eka (2018)
Ju Dou (1990)
Indian Rupee
Ferry (2021)
Last Tango in Paris (1972)
Inherent Vice
Perfect Sense (2011)
Delicatessen
Vettam(2004)
The Kid Detective (2020)
Vinodayathra (2007)
CinemaKottaga