Video Sources 129 Views

  • Watch trailer
Hill of No Return (1992)

Hill of No Return (1992)

Dec. 05, 1992Taiwan175 Min.N/A
Your rating: 0
0 0 votes

Synopsis

In the 1920’s, when Taiwan is Japan’s colony, the small town Chiu-Fen was famous of its gold mines. Escaping from the landlord’s control, Chu and Wei join the gold rush in Chiu-Fen, hoping that they can be rich and have their own land some day. The are two kinds of women in the small town : hard working housewives and prostitute. The formers are always struggling in poverty. Jou is one of them. People believe that she is doomed to be a widow. She married twice. Both of her husbands are dead. Che falls in love with her anyway.

Hill of No Return (1992) 1080p WEB-DL HEVC 10bit DDP 2.0 PoOlLa (1.8 GB)

Format : Matroska
Format version : Version 4
File size : 1.81 GiB
Duration : 2 h 54 min
Overall bit rate : 1 482 kb/s
Encoded date : UTC 2021-06-30 05:20:22
Writing application : mkvmerge v56.1.0 (‘My Friend’) 64-bit
Writing library : libebml v1.4.2 + libmatroska v1.6.4

Video
ID : 1
Format : HEVC
Format/Info : High Efficiency Video Coding
Format profile : Main [email protected]@Main
Codec ID : V_MPEGH/ISO/HEVC
Duration : 2 h 54 min
Bit rate : 1 256 kb/s
Width : 1 920 pixels
Height : 1 036 pixels
Display aspect ratio : 1.85:1
Frame rate mode : Constant
Frame rate : 23.976 (24000/1001) FPS
Color space : YUV
Chroma subsampling : 4:2:0
Bit depth : 10 bits
Bits/(Pixel*Frame) : 0.026
Stream size : 1.53 GiB (85%)
Default : Yes
Forced : No
Color range : Limited
Color primaries : BT.709
Transfer characteristics : BT.709
Matrix coefficients : BT.709

Audio
ID : 2
Format : E-AC-3
Format/Info : Enhanced AC-3
Commercial name : Dolby Digital Plus
Codec ID : A_EAC3
Duration : 2 h 54 min
Bit rate mode : Constant
Bit rate : 224 kb/s
Channel(s) : 2 channels
Channel layout : L R
Sampling rate : 48.0 kHz
Frame rate : 31.250 FPS (1536 SPF)
Compression mode : Lossy
Stream size : 280 MiB (15%)
Language : Chinese
Service kind : Complete Main
Default : No
Forced : No

Text
ID : 3
Format : UTF-8
Codec ID : S_TEXT/UTF8
Codec ID/Info : UTF-8 Plain Text
Duration : 2 h 52 min
Bit rate : 2 b/s
Count of elements : 165
Stream size : 2.66 KiB (0%)
Title : English [SDH]
Language : English
Default : No
Forced : No

Hill of No Return (1992) 720p WEB-DL HEVC 10bit AAC 2.0 PoOlLa (950 MB)

Format : Matroska
Format version : Version 4
File size : 947 MiB
Duration : 2 h 54 min
Overall bit rate : 759 kb/s
Encoded date : UTC 2021-07-01 04:30:27
Writing application : mkvmerge v56.1.0 (‘My Friend’) 64-bit
Writing library : libebml v1.4.2 + libmatroska v1.6.4

Video
ID : 1
Format : HEVC
Format/Info : High Efficiency Video Coding
Format profile : Main [email protected]@Main
Codec ID : V_MPEGH/ISO/HEVC
Duration : 2 h 54 min
Bit rate : 698 kb/s
Width : 1 280 pixels
Height : 690 pixels
Display aspect ratio : 1.85:1
Frame rate mode : Constant
Frame rate : 23.976 (24000/1001) FPS
Color space : YUV
Chroma subsampling : 4:2:0
Bit depth : 10 bits
Bits/(Pixel*Frame) : 0.033
Stream size : 872 MiB (92%)
Default : Yes
Forced : No
Color range : Limited
Color primaries : BT.709
Transfer characteristics : BT.709
Matrix coefficients : BT.709

Audio
ID : 2
Format : AAC LC SBR
Format/Info : Advanced Audio Codec Low Complexity with Spectral Band Replication
Commercial name : HE-AAC
Format settings : Explicit
Codec ID : A_AAC-2
Duration : 2 h 54 min
Bit rate : 58.9 kb/s
Channel(s) : 2 channels
Channel layout : L R
Sampling rate : 48.0 kHz
Frame rate : 23.438 FPS (2048 SPF)
Compression mode : Lossy
Delay relative to video : 23 ms
Stream size : 73.5 MiB (8%)
Language : Chinese
Default : No
Forced : No

Text
ID : 3
Format : UTF-8
Codec ID : S_TEXT/UTF8
Codec ID/Info : UTF-8 Plain Text
Duration : 2 h 52 min
Bit rate : 2 b/s
Count of elements : 165
Stream size : 2.66 KiB (0%)
Title : English [SDH]
Language : English
Default : No
Forced : No

Telegram  Download Guide  Donate

Original title 無言的山丘
IMDb Rating 7.9 245 votes
TMDb Rating 8.2 10 votes

Similar titles

Mosul (2020)
Munthirivallikal Thalirkkumbol (2017)
Pagglait (2021)
Double Patty (2021)
Mohan Kumar Fans (2021)
Claire’s Knee (1970)
Maheshinte Prathikaaram (2016)
East/West (1999)
The Dark Side of the Heart
A Separation (2011)
The Godfather: Part II (1974)
Chhalaang (2020)
CinemaKottaga