Video Sources 121 Views

  • Watch trailer
Hitman: Agent Jun (2020)

Hitman: Agent Jun (2020)

Oh Shoot! I Drew The Secret StoriesJan. 22, 2020South Korea110 Min.N/A
Your rating: 0
7 1 vote

Synopsis

A top secret agent fakes his death to start a new life as a comic artist. When his new career goes poorly and he’s unable to provide for his family, he drunk draws a comic about his exciting past. But when it gets posted online and becomes a massive hit, trouble from that past comes looking for him.

Hitman Agent Jun (2020) 1080p NF WEB-DL HEVC 10bit AAC 5.1 PoOlLa (1.4 GB)

Format : Matroska
Format version : Version 4
File size : 1.45 GiB
Duration : 1 h 49 min
Overall bit rate : 1 890 kb/s
Writing application : mkvmerge v59.0.0 (‘Shining Star’) 64-bit
Writing library : libebml v1.4.2 + libmatroska v1.6.4

Video
ID : 1
Format : HEVC
Format/Info : High Efficiency Video Coding
Format profile : Main 10@L4@High
Codec ID : V_MPEGH/ISO/HEVC
Duration : 1 h 49 min
Bit rate : 1 624 kb/s
Width : 1 920 pixels
Height : 1 036 pixels
Display aspect ratio : 1.85:1
Frame rate mode : Constant
Frame rate : 23.976 (24000/1001) FPS
Color space : YUV
Chroma subsampling : 4:2:0
Bit depth : 10 bits
Bits/(Pixel*Frame) : 0.034
Stream size : 1.25 GiB (86%)
Title : Encoded by PoOlLa | cinemakottaga.ml
Color range : Limited
Color primaries : BT.709
Transfer characteristics : BT.709
Matrix coefficients : BT.709

Audio
ID : 2
Format : AAC LC
Format/Info : Advanced Audio Codec Low Complexity
Codec ID : A_AAC-2
Duration : 1 h 49 min
Bit rate : 265 kb/s
Channel(s) : 6 channels
Channel layout : C L R Ls Rs LFE
Sampling rate : 48.0 kHz
Frame rate : 46.875 FPS (1024 SPF)
Compression mode : Lossy
Delay relative to video : 20 ms
Stream size : 207 MiB (14%)
Language : Korean

Text
ID : 3
Format : UTF-8
Codec ID : S_TEXT/UTF8
Language : English

Hitman Agent Jun (2020) 720p NF WEB-DL HEVC 10bit AAC 2.0 PoOlLa (700 MB)

Format : Matroska
Format version : Version 4
File size : 702 MiB
Duration : 1 h 49 min
Overall bit rate : 894 kb/s
Writing application : mkvmerge v59.0.0 (‘Shining Star’) 64-bit
Writing library : libebml v1.4.2 + libmatroska v1.6.4

Video
ID : 1
Format : HEVC
Format/Info : High Efficiency Video Coding
Format profile : Main 10@L3.1@Main
Codec ID : V_MPEGH/ISO/HEVC
Duration : 1 h 49 min
Bit rate : 826 kb/s
Width : 1 280 pixels
Height : 690 pixels
Display aspect ratio : 1.85:1
Frame rate mode : Constant
Frame rate : 23.976 (24000/1001) FPS
Color space : YUV
Chroma subsampling : 4:2:0
Bit depth : 10 bits
Bits/(Pixel*Frame) : 0.039
Stream size : 649 MiB (92%)
Title : Encoded by PoOlLa | cinemakottaga.ml
Color range : Limited
Color primaries : BT.709
Transfer characteristics : BT.709
Matrix coefficients : BT.709

Audio
ID : 2
Format : AAC LC SBR
Format/Info : Advanced Audio Codec Low Complexity with Spectral Band Replication
Commercial name : HE-AAC
Format settings : Explicit
Codec ID : A_AAC-2
Duration : 1 h 49 min
Bit rate : 66.2 kb/s
Channel(s) : 2 channels
Channel layout : L R
Sampling rate : 48.0 kHz
Frame rate : 23.438 FPS (2048 SPF)
Compression mode : Lossy
Delay relative to video : 40 ms
Stream size : 51.7 MiB (7%)
Language : Korean

Text
ID : 3
Format : UTF-8
Codec ID : S_TEXT/UTF8
Codec ID/Info : UTF-8 Plain Text
Language : English

Telegram  Download Guide  Donate

Hitman: Agent Jun (2020)
Hitman: Agent Jun (2020)
Hitman: Agent Jun (2020)
Hitman: Agent Jun (2020)
Hitman: Agent Jun (2020)
Hitman: Agent Jun (2020)
Hitman: Agent Jun (2020)
Hitman: Agent Jun (2020)
Hitman: Agent Jun (2020)
Hitman: Agent Jun (2020)
Original title 히트맨
IMDb Rating 6.4 1,490 votes
TMDb Rating 7.6 32 votes

Director

Choi Won-sub
Director

Cast

Similar titles

Pagglait (2021)
Michael Madana Kama Rajan
Furie (2019)
Gunpowder Milkshake (2021)
Raja Rani (2013)
Black Coffee (2021)
Chungking Express
Yamadonga (2007)
I Love You, Man
Man of Steel (2013)
Brotherhood of the Wolf (2001)
The Cyclone (1996)
CinemaKottaga