#Home (2021)

#Home (2021)

Aug. 19, 2021India162 Min.N/A
Your rating: 0
6 1 vote

Synopsis

#Home is about the humble, technology-challenged Oliver twist struggles to keep his closeness with his sons and communicate as they grow up and become active on social media.

#Home (2021) 2160p AMZN WEB-DL HEVC 10bit DDP 5.1 PoOlLa (4.9 GB)

Format : Matroska
Format version : Version 4
File size : 4.97 GiB
Duration : 2 h 41 min
Overall bit rate : 4 410 kb/s
Writing application : Lavf58.76.100
Writing library : Lavf58.76.100
Comment : Ripped By PoOlLa @ cinemakottaga.ml
ErrorDetectionType : Per level 1

Video
ID : 1
Format : HEVC
Format/Info : High Efficiency Video Coding
Format profile : Main 10@L5@Main
Codec ID : V_MPEGH/ISO/HEVC
Duration : 2 h 41 min
Bit rate : 3 682 kb/s
Width : 3 840 pixels
Height : 1 600 pixels
Display aspect ratio : 2.40:1
Frame rate mode : Constant
Frame rate : 24.000 FPS
Color space : YUV
Chroma subsampling : 4:2:0
Bit depth : 10 bits
Bits/(Pixel*Frame) : 0.025
Stream size : 4.15 GiB (83%)
Writing library : Lavc58.134.100 hevc_nvenc
Default : Yes
Forced : No
Color range : Limited
Color primaries : BT.709
Transfer characteristics : BT.709
Matrix coefficients : BT.709

Audio
ID : 2
Format : E-AC-3
Format/Info : Enhanced AC-3
Commercial name : Dolby Digital Plus
Codec ID : A_EAC3
Duration : 2 h 41 min
Bit rate mode : Constant
Bit rate : 640 kb/s
Channel(s) : 6 channels
Channel layout : L R C LFE Ls Rs
Sampling rate : 48.0 kHz
Frame rate : 31.250 FPS (1536 SPF)
Bit depth : 32 bits
Compression mode : Lossy
Stream size : 739 MiB (15%)
Service kind : Complete Main
Default : Yes
Forced : No

Text
ID : 3
Format : UTF-8
Codec ID : S_TEXT/UTF8
Codec ID/Info : UTF-8 Plain Text
Duration : 2 h 40 min
Default : Yes
Forced : No

#Home(2021) 1080p AMZN WEB-DL HEVC DDP 5.1 PoOlLa (2.3 GB)

Format : Matroska
Format version : Version 4
File size : 2.31 GiB
Duration : 2 h 41 min
Overall bit rate : 2 052 kb/s
Writing application : Lavf58.76.100
Writing library : Lavf58.76.100
Comment : Encoded By PoOlLa @ cinemakottaga.ml
ErrorDetectionType : Per level 1

Video
ID : 1
Format : HEVC
Format/Info : High Efficiency Video Coding
Format profile : Main@L4@High
Codec ID : V_MPEGH/ISO/HEVC
Duration : 2 h 41 min
Bit rate : 1 371 kb/s
Width : 1 920 pixels
Height : 800 pixels
Display aspect ratio : 2.40:1
Frame rate mode : Constant
Frame rate : 24.000 FPS
Color space : YUV
Chroma subsampling : 4:2:0
Bit depth : 8 bits
Bits/(Pixel*Frame) : 0.037
Stream size : 1.55 GiB (67%)
Writing library : Lavc58.134.100 libx265
Default : Yes
Forced : No
Color range : Limited
Color primaries : BT.709
Transfer characteristics : BT.709
Matrix coefficients : BT.709

Audio
ID : 2
Format : E-AC-3
Format/Info : Enhanced AC-3
Commercial name : Dolby Digital Plus
Codec ID : A_EAC3
Duration : 2 h 41 min
Bit rate mode : Constant
Bit rate : 640 kb/s
Channel(s) : 6 channels
Channel layout : L R C LFE Ls Rs
Sampling rate : 48.0 kHz
Frame rate : 31.250 FPS (1536 SPF)
Bit depth : 32 bits
Compression mode : Lossy
Stream size : 739 MiB (31%)
Service kind : Complete Main
Default : Yes
Forced : No

Text
ID : 3
Format : UTF-8
Codec ID : S_TEXT/UTF8
Codec ID/Info : UTF-8 Plain Text
Duration : 2 h 40 min
Default : Yes
Forced : No

#Home(2021) 1080p AMZN WEB-DL HEVC AAC 5.1 PoOlLa (1.6 GB)

Format : Matroska
Format version : Version 4
File size : 1.65 GiB
Duration : 2 h 41 min
Overall bit rate : 1 460 kb/s
Writing application : Lavf58.76.100
Writing library : Lavf58.76.100
Comment : Encoded By PoOlLa @ cinemakottaga.ml
ErrorDetectionType : Per level 1

Video
ID : 1
Format : HEVC
Format/Info : High Efficiency Video Coding
Format profile : Main@L4@High
Codec ID : V_MPEGH/ISO/HEVC
Duration : 2 h 41 min
Width : 1 920 pixels
Height : 800 pixels
Display aspect ratio : 2.40:1
Frame rate mode : Constant
Frame rate : 24.000 FPS
Color space : YUV
Chroma subsampling : 4:2:0
Bit depth : 8 bits
Writing library : Lavc58.134.100 libx265
Default : Yes
Forced : No
Color range : Limited
Color primaries : BT.709
Transfer characteristics : BT.709
Matrix coefficients : BT.709

Audio
ID : 2
Format : AAC LC SBR
Format/Info : Advanced Audio Codec Low Complexity with Spectral Band Replication
Commercial name : HE-AAC
Format settings : NBC
Codec ID : A_AAC-5
Duration : 2 h 41 min
Channel(s) : 6 channels
Channel layout : C L R Ls Rs LFE
Sampling rate : 48.0 kHz
Frame rate : 23.438 FPS (2048 SPF)
Compression mode : Lossy
Delay relative to video : -105 ms
Writing library : Lavc58.134.100 libfdk_aac
Default : Yes
Forced : No

Text
ID : 3
Format : UTF-8
Codec ID : S_TEXT/UTF8
Codec ID/Info : UTF-8 Plain Text
Duration : 2 h 40 min
Default : Yes
Forced : No

#Home (2021) 1080p AMZN WEB-DL AV1 10bit Opus 5.1-SMK (857 MB)

Format : Matroska
Format version : Version 4
File size : 857 MiB
Duration : 2 h 41 min
Overall bit rate : 743 kb/s
Encoded date : UTC 2021-08-21 02:01:07
Writing application : mkvmerge v59.0.0 (‘Shining Star’) 64-bit
Writing library : libebml v1.4.2 + libmatroska v1.6.4

Video
ID : 1
Format : AV1
Format/Info : AOMedia Video 1
Format profile : Main@L4.0
Codec ID : V_AV1
Duration : 2 h 41 min
Bit rate : 505 kb/s
Width : 1 920 pixels
Height : 800 pixels
Display aspect ratio : 2.40:1
Frame rate mode : Variable
Frame rate : 24.000 FPS
Color space : YUV
Chroma subsampling : 4:2:0
Bit depth : 10 bits
Bits/(Pixel*Frame) : 0.014
Stream size : 582 MiB (68%)
Default : Yes
Forced : No
Color range : Limited
Color primaries : BT.709
Transfer characteristics : BT.709
Matrix coefficients : BT.709

Audio
ID : 2
Format : Opus
Codec ID : A_OPUS
Duration : 2 h 41 min
Bit rate : 235 kb/s
Channel(s) : 6 channels
Channel layout : L R C Lb Rb LFE
Sampling rate : 48.0 kHz
Frame rate : 50.000 FPS (960 SPF)
Compression mode : Lossy
Stream size : 271 MiB (32%)
Writing library : Lavc59.3.102 libopus
Language : Malay
Default : No
Forced : No

Text
ID : 3
Format : UTF-8
Codec ID : S_TEXT/UTF8
Codec ID/Info : UTF-8 Plain Text
Duration : 2 h 38 min
Bit rate : 62 b/s
Count of elements : 2250
Stream size : 72.2 KiB (0%)
Title : English
Language : English
Default : No
Forced : No

#Home (2021) 720p AMZN WEB-DL 2CH HEVC-HSB (840 MB)

Format : Matroska
Format version : Version 4
File size : 840 MiB
Duration : 2 h 41 min
Overall bit rate : 728 kb/s
Movie name : HSBRips | #Home.2021.720p.AMZN.WEB-DL.2CH.HEVC.x265-HSB
Encoded date : UTC 2021-08-18 17:09:01
Writing application : mkvmerge v59.0.0 (‘Shining Star’) 64-bit
Writing library : libebml v1.4.2 + libmatroska v1.6.4 / Lavf58.20.100

Video
ID : 1
Format : HEVC
Format/Info : High Efficiency Video Coding
Format profile : Main@L3.1@Main
Codec ID : V_MPEGH/ISO/HEVC
Duration : 2 h 41 min
Bit rate : 652 kb/s
Width : 1 280 pixels
Height : 528 pixels
Display aspect ratio : 2.40:1
Frame rate mode : Constant
Frame rate : 24.000 FPS
Standard : NTSC
Color space : YUV
Chroma subsampling : 4:2:0
Bit depth : 8 bits
Bits/(Pixel*Frame) : 0.040
Stream size : 752 MiB (90%)
Title : HSBRips | #Home.2021.720p.AMZN.WEB-DL.2CH.HEVC.x265-HSB
Default : Yes
Forced : No
Color range : Limited
Color primaries : BT.709
Transfer characteristics : BT.709
Matrix coefficients : BT.709

Audio
ID : 2
Format : AAC LC SBR
Format/Info : Advanced Audio Codec Low Complexity with Spectral Band Replication
Commercial name : HE-AAC
Format settings : Explicit
Codec ID : A_AAC-2
Duration : 2 h 41 min
Bit rate : 74.0 kb/s
Channel(s) : 2 channels
Channel layout : L R
Sampling rate : 48.0 kHz
Frame rate : 23.438 FPS (2048 SPF)
Compression mode : Lossy
Stream size : 85.3 MiB (10%)
Writing library : Lavc58.35.100 libfdk_aac
Default : Yes
Forced : No

Text
ID : 3
Format : UTF-8
Codec ID : S_TEXT/UTF8
Codec ID/Info : UTF-8 Plain Text
Duration : 2 h 38 min
Bit rate : 62 b/s
Count of elements : 2250
Stream size : 72.2 KiB (0%)
Title : English
Language : English
Default : No
Forced : No

Telegram  Download Guide  Donate

Original title #ഹോം
IMDb Rating 9.1 22 votes
TMDb Rating 7.3 3 votes

Director

Rojin Thomas
Director

Cast

Indrans isOliver Twist
Oliver Twist
Manju Pillai isKuttiyamma
Kuttiyamma
Sreenath Bhasi isAntony Oliver Twist
Antony Oliver Twist
Naslen Gafoor isCharles Oliver Twist
Charles Oliver Twist
Srikant Murali isJoseph Lopez
Joseph Lopez
Aju Varghese isShooting Set - DOP
Shooting Set - DOP
Vijay Babu isDr. Franklin
Dr. Franklin

Similar titles

The Perks of Being a Wallflower (2012)
Kaaviya Thalaivan (2014)
Akashadoothu
The Kid Detective (2020)
Ennu Ninte Moideen (2015)
Jar City (2006)
Jocob’s Kingdom of Heaven
Stillwater (2021)
The Woman in the Window (2021)
Training Day (2001)
Vishudhan(2013)
Fireworks Wednesday (2006)
CinemaKottaga