Video Sources 5930 Views

  • Watch trailer
Jagame Thandhiram (2021)

Jagame Thandhiram (2021)

Let's Rakita!Jun. 18, 2021United Kingdom157 Min.TV-MA
Your rating: 0
6.9 8 votes

Synopsis

When a clever, carefree gangster is recruited to help an overseas crime lord take down a rival, he is caught off guard by the moral dilemmas that follow.

Jagame Thandhiram (2021) Tamil 720p 10bit NF WEB-DL 2CH HEVC MPEG7 (641MB)

Source …: Jagame.Thandhiram.2021.1080p.NF.WEB-DL.DD+5.1.Atmos.x264-Telly

Format : Matroska
Format version : Version 4
File size : 642 MiB
Duration : 2 h 38 min
Overall bit rate : 565 kb/s
Movie name : Jagame.Thandhiram.2021.Tamil.720p.10bit.NF.WEB-DL.2CH.x265.HEVC-MPEG7 | www.cinemakottaga.ml
Encoded date : UTC 2021-06-18 16:17:51
Writing application : mkvmerge v58.0.0 (‘Supper’s Ready’) 64-bit
Writing library : libebml v1.4.2 + libmatroska v1.6.4
Cover : Yes
Attachments : cover.jpg

Video
ID : 1
Format : HEVC
Format/Info : High Efficiency Video Coding
Format profile : Main [email protected]@Main
Codec ID : V_MPEGH/ISO/HEVC
Duration : 2 h 38 min
Bit rate : 503 kb/s
Width : 1 280 pixels
Height : 534 pixels
Display aspect ratio : 2.40:1
Frame rate mode : Variable
Frame rate : 24.000 FPS
Color space : YUV
Chroma subsampling : 4:2:0
Bit depth : 10 bits
Bits/(Pixel*Frame) : 0.031
Stream size : 571 MiB (89%)
Title : MPEG7 | www.cinemakottaga.ml
Default : Yes
Forced : No
Color range : Limited
Color primaries : BT.709
Transfer characteristics : BT.709
Matrix coefficients : BT.709

Audio
ID : 2
Format : AAC LC SBR
Format/Info : Advanced Audio Codec Low Complexity with Spectral Band Replication
Commercial name : HE-AAC
Format settings : NBC
Codec ID : A_AAC-5
Duration : 2 h 38 min
Bit rate : 60.0 kb/s
Channel(s) : 2 channels
Channel layout : L R
Sampling rate : 48.0 kHz
Frame rate : 23.438 FPS (2048 SPF)
Compression mode : Lossy
Stream size : 68.1 MiB (11%)
Title : MPEG7 | www.cinemakottaga.ml
Language : Tamil
Default : Yes
Forced : No

Text
ID : 3
Format : UTF-8
Codec ID : S_TEXT/UTF8
Codec ID/Info : UTF-8 Plain Text
Duration : 2 h 36 min
Bit rate : 62 b/s
Count of elements : 2213
Stream size : 72.1 KiB (0%)
Title : MPEG7 | www.cinemakottaga.ml
Language : English
Default : Yes
Forced : No

Jagame Thandhiram (2021) Tamil 720p NF WEB-DL 2CH HEVC MPEG7 (813MB)

Source …: Jagame.Thandhiram.2021.1080p.NF.WEB-DL.DD+5.1.Atmos.x264-Telly

Format : Matroska
Format version : Version 4
File size : 813 MiB
Duration : 2 h 38 min
Overall bit rate : 716 kb/s
Movie name : Jagame.Thanthiram.2021.Tamil.720p.NF.WEB-DL.2CH.HEVC-MPEG7 | www.cinemakottaga.ml
Encoded date : UTC 2021-06-19 18:40:03
Writing application : mkvmerge v58.0.0 (‘Supper’s Ready’) 64-bit
Writing library : libebml v1.4.2 + libmatroska v1.6.4
Cover : Yes
Attachments : cover.jpg

Video
ID : 1
Format : HEVC
Format/Info : High Efficiency Video Coding
Format profile : [email protected]@Main
Codec ID : V_MPEGH/ISO/HEVC
Duration : 2 h 38 min
Bit rate : 649 kb/s
Width : 1 280 pixels
Height : 534 pixels
Display aspect ratio : 2.40:1
Frame rate mode : Variable
Frame rate : 24.000 FPS
Color space : YUV
Chroma subsampling : 4:2:0
Bit depth : 8 bits
Bits/(Pixel*Frame) : 0.040
Stream size : 737 MiB (91%)
Title : MPEG7 | www.cinemakottaga.ml
Default : Yes
Forced : No
Color range : Limited
Color primaries : BT.709
Transfer characteristics : BT.709
Matrix coefficients : BT.709

Audio
ID : 2
Format : Opus
Codec ID : A_OPUS
Duration : 2 h 38 min
Bit rate : 64.7 kb/s
Channel(s) : 2 channels
Channel layout : L R
Sampling rate : 48.0 kHz
Frame rate : 50.000 FPS (960 SPF)
Bit depth : 32 bits
Compression mode : Lossy
Stream size : 73.5 MiB (9%)
Title : MPEG7 | www.cinemakottaga.ml
Language : Tamil
Default : Yes
Forced : No

Text
ID : 3
Format : UTF-8
Codec ID : S_TEXT/UTF8
Codec ID/Info : UTF-8 Plain Text
Duration : 2 h 36 min
Bit rate : 62 b/s
Count of elements : 2212
Stream size : 72.1 KiB (0%)
Title : MPEG7 | www.cinemakottaga.ml
Language : English
Default : Yes
Forced : No

Jagame Thandhiram (2021) Tamil 720p 10bit NF WEB-DL 2CH HEVC HSB (889MB)

Source …….: Jagame.Thandhiram.2021.1080p.NF.WEB.DL.H264.DDP5.1.Atmos-DDH
Runtime ……: 2hr 38min
Video ……..: HEVC | 1280 x 534 | 10bit
Audio ……..: 2CH HE-AAC Tamil
Subs …………: English

Jagame Thandhiram (2021) Multi MAL+HIN+TEL 720p 10bit NF WEB-DL 2CH HEVC HSB (1.03GB)

Source …….: Jagame.Thandhiram.2021.1080p.NF.WEB.DL.H264.DDP5.1.Atmos-DDH
Runtime ……: 2hr 38min
Video ……..: HEVC | 1280 x 534 | 10bit
Audio ……..: 2CH HE-AAC Malayalam,Hindi,Telugu
Subs …………: English

Jagame Thandhiram (2021) Tamil 1080p NF WEB-DL 2CH HEVC MPEG7 (1.2GB)

Source …: Jagame.Thandhiram.2021.1080p.NF.WEB-DL.DD+5.1.Atmos.x264-Telly

Format : Matroska
Format version : Version 4
File size : 1.21 GiB
Duration : 2 h 38 min
Overall bit rate : 1 095 kb/s
Movie name : Jagame.Thanthiram.2021.Tamil.1080p.NF.WEB-DL.2CH.HEVC-MPEG7 | www.cinemakottaga.ml
Encoded date : UTC 2021-06-19 18:30:01
Writing application : mkvmerge v58.0.0 (‘Supper’s Ready’) 64-bit
Writing library : libebml v1.4.2 + libmatroska v1.6.4
Cover : Yes
Attachments : cover.jpg

Video
ID : 1
Format : HEVC
Format/Info : High Efficiency Video Coding
Format profile : [email protected]@Main
Codec ID : V_MPEGH/ISO/HEVC
Duration : 2 h 38 min
Bit rate : 929 kb/s
Width : 1 920 pixels
Height : 800 pixels
Display aspect ratio : 2.40:1
Frame rate mode : Variable
Frame rate : 24.000 FPS
Color space : YUV
Chroma subsampling : 4:2:0
Bit depth : 8 bits
Bits/(Pixel*Frame) : 0.025
Stream size : 1.03 GiB (85%)
Title : MPEG7 | www.cinemakottaga.ml
Default : Yes
Forced : No
Color range : Limited
Color primaries : BT.709
Transfer characteristics : BT.709
Matrix coefficients : BT.709

Audio
ID : 2
Format : AAC LC
Format/Info : Advanced Audio Codec Low Complexity
Codec ID : A_AAC-2
Duration : 2 h 38 min
Bit rate : 163 kb/s
Channel(s) : 2 channels
Channel layout : L R
Sampling rate : 48.0 kHz
Frame rate : 46.875 FPS (1024 SPF)
Compression mode : Lossy
Stream size : 185 MiB (15%)
Title : MPEG7 | www.cinemakottaga.ml
Language : Tamil
Default : Yes
Forced : No

Text
ID : 3
Format : UTF-8
Codec ID : S_TEXT/UTF8
Codec ID/Info : UTF-8 Plain Text
Duration : 2 h 36 min
Bit rate : 62 b/s
Count of elements : 2212
Stream size : 72.1 KiB (0%)
Title : MPEG7 | www.cinemakottaga.ml
Language : English
Default : Yes
Forced : No

 

Jagame Thandhiram (2021) Tamil 1080p 10bit NF WEB-DL 6CH HEVC HSB (1.66GB)

Source …….: Jagame.Thandhiram.2021.1080p.NF.WEB.DL.H264.DDP5.1.Atmos-DDH
Runtime ……: 2hr 38min
Video ……..: HEVC | 1920 x 802 | 10bit
Audio ……..: 6CH HE-AAC Tamil
Subs …………: English

Jagame Thandhiram (2021) Multi MAL+HIN+TEL 1080p 10bit NF WEB-DL 6CH HEVC HSB (2.07GB)

Source …….: Jagame.Thandhiram.2021.1080p.NF.WEB.DL.H264.DDP5.1.Atmos-DDH
Runtime ……: 2hr 38min
Video ……..: HEVC | 1920 x 802 | 10bit
Audio ……..: 6CH HE-AAC Malayalam,Hindi,Telugu
Subs …………: English

Jagame Thandhiram (2021) Tamil 1080p 10bit NF WEB-DL 6CH HEVC MPEG7 (1.9GB)

Source …: Jagame.Thandhiram.2021.1080p.NF.WEB-DL.DD+5.1.Atmos.x264-Telly

Format : Matroska
Format version : Version 4
File size : 1.90 GiB
Duration : 2 h 38 min
Overall bit rate : 1 715 kb/s
Movie name : Jagame.Thandhiram.2021.Tamil.1080p.10bit.NF.WEB-DL.6CH.HEVC-MPEG7 | www.cinemakottaga.ml
Encoded date : UTC 2021-06-18 12:05:52
Writing application : mkvmerge v58.0.0 (‘Supper’s Ready’) 64-bit
Writing library : libebml v1.4.2 + libmatroska v1.6.4
Cover : Yes
Attachments : cover.jpg

Video
ID : 1
Format : HEVC
Format/Info : High Efficiency Video Coding
Format profile : Main [email protected]@High
Codec ID : V_MPEGH/ISO/HEVC
Duration : 2 h 38 min
Bit rate : 1 488 kb/s
Width : 1 920 pixels
Height : 800 pixels
Display aspect ratio : 2.40:1
Frame rate mode : Constant
Frame rate : 24.000 FPS
Color space : YUV
Chroma subsampling : 4:2:0
Bit depth : 10 bits
Bits/(Pixel*Frame) : 0.040
Stream size : 1.65 GiB (87%)
Title : MPEG7 | www.cinemakottaga.ml
Default : Yes
Forced : No

Audio
ID : 2
Format : AAC LC SBR
Format/Info : Advanced Audio Codec Low Complexity with Spectral Band Replication
Commercial name : HE-AAC
Format settings : NBC
Codec ID : A_AAC-5
Duration : 2 h 38 min
Bit rate : 224 kb/s
Channel(s) : 6 channels
Channel layout : C L R Ls Rs LFE
Sampling rate : 48.0 kHz
Frame rate : 23.438 FPS (2048 SPF)
Compression mode : Lossy
Stream size : 254 MiB (13%)
Title : MPEG7 | www.cinemakottaga.ml
Language : Tamil
Default : Yes
Forced : No

Text #1
ID : 3
Format : UTF-8
Codec ID : S_TEXT/UTF8
Codec ID/Info : UTF-8 Plain Text
Duration : 2 h 36 min
Bit rate : 62 b/s
Count of elements : 2213
Stream size : 72.1 KiB (0%)
Title : MPEG7 | www.cinemakottaga.ml
Language : English
Default : Yes
Forced : No

Text #2
ID : 4
Format : UTF-8
Codec ID : S_TEXT/UTF8
Codec ID/Info : UTF-8 Plain Text
Duration : 2 h 37 min
Bit rate : 165 b/s
Count of elements : 2231
Stream size : 190 KiB (0%)
Title : MPEG7 | www.cinemakottaga.ml
Language : Hindi
Default : No
Forced : No

Text #3
ID : 5
Format : UTF-8
Codec ID : S_TEXT/UTF8
Codec ID/Info : UTF-8 Plain Text
Duration : 2 h 36 min
Bit rate : 213 b/s
Count of elements : 2525
Stream size : 245 KiB (0%)
Title : MPEG7 | www.cinemakottaga.ml
Language : Tamil
Default : No
Forced : No

Text #4
ID : 6
Format : UTF-8
Codec ID : S_TEXT/UTF8
Codec ID/Info : UTF-8 Plain Text
Duration : 2 h 32 min
Bit rate : 24 b/s
Count of elements : 317
Stream size : 27.7 KiB (0%)
Title : MPEG7 | www.cinemakottaga.ml
Language : Tamil
Default : No
Forced : Yes

Text #5
ID : 7
Format : UTF-8
Codec ID : S_TEXT/UTF8
Codec ID/Info : UTF-8 Plain Text
Duration : 2 h 36 min
Bit rate : 62 b/s
Count of elements : 2212
Stream size : 72.1 KiB (0%)
Title : MPEG7 | www.cinemakottaga.ml
Language : English
Default : No
Forced : No

Text #6
ID : 8
Format : UTF-8
Codec ID : S_TEXT/UTF8
Codec ID/Info : UTF-8 Plain Text
Duration : 2 h 37 min
Bit rate : 60 b/s
Count of elements : 2174
Stream size : 69.5 KiB (0%)
Title : MPEG7 | www.cinemakottaga.ml
Language : Dutch
Default : No
Forced : No

Text #7
ID : 9
Format : UTF-8
Codec ID : S_TEXT/UTF8
Codec ID/Info : UTF-8 Plain Text
Duration : 2 h 37 min
Bit rate : 65 b/s
Count of elements : 2207
Stream size : 74.9 KiB (0%)
Title : MPEG7 | www.cinemakottaga.ml
Language : French
Default : No
Forced : No

Text #8
ID : 10
Format : UTF-8
Codec ID : S_TEXT/UTF8
Codec ID/Info : UTF-8 Plain Text
Duration : 2 h 37 min
Bit rate : 63 b/s
Count of elements : 2227
Stream size : 73.3 KiB (0%)
Title : MPEG7 | www.cinemakottaga.ml
Language : German
Default : No
Forced : No

Text #9
ID : 11
Format : UTF-8
Codec ID : S_TEXT/UTF8
Codec ID/Info : UTF-8 Plain Text
Duration : 2 h 37 min
Bit rate : 55 b/s
Count of elements : 2227
Stream size : 63.6 KiB (0%)
Title : MPEG7 | www.cinemakottaga.ml
Language : Spanish
Default : No
Forced : No

Jagame Thandhiram (2021) Multi (Tamil+Mal+Tel+Eng+Hindi) 1080p 10bit NF WEB-DL 6CH HEVC MPEG7 (2.9GB)

Source …: Jagame.Thandhiram.2021.1080p.NF.WEB-DL.Multi.DDP5.1.Atmos.x264-_ShiNobi_

Format : Matroska
Format version : Version 4
File size : 2.90 GiB
Duration : 2 h 38 min
Overall bit rate : 2 613 kb/s
Movie name : Jagame.Thandhiram.2021.Multi[Tamil+Malayalm+Telugu+English+Hindi]1080p.10bit.NF.WEB-DL.6CH.HE-AAC.x265.HEVC-MPEG7 | www.cinemakottaga.ml
Encoded date : UTC 2021-06-18 13:09:46
Writing application : mkvmerge v58.0.0 (‘Supper’s Ready’) 64-bit
Writing library : libebml v1.4.2 + libmatroska v1.6.4
Cover : Yes
Attachments : cover.jpg

Video
ID : 1
Format : HEVC
Format/Info : High Efficiency Video Coding
Format profile : Main [email protected]@High
Codec ID : V_MPEGH/ISO/HEVC
Duration : 2 h 38 min
Bit rate : 1 488 kb/s
Width : 1 920 pixels
Height : 800 pixels
Display aspect ratio : 2.40:1
Frame rate mode : Constant
Frame rate : 24.000 FPS
Color space : YUV
Chroma subsampling : 4:2:0
Bit depth : 10 bits
Bits/(Pixel*Frame) : 0.040
Stream size : 1.65 GiB (57%)
Title : MPEG7 | www.cinemakottaga.ml
Default : Yes
Forced : No

Audio #1
ID : 2
Format : AAC LC SBR
Format/Info : Advanced Audio Codec Low Complexity with Spectral Band Replication
Commercial name : HE-AAC
Format settings : NBC
Codec ID : A_AAC-5
Duration : 2 h 38 min
Bit rate : 224 kb/s
Channel(s) : 6 channels
Channel layout : C L R Ls Rs LFE
Sampling rate : 48.0 kHz
Frame rate : 23.438 FPS (2048 SPF)
Compression mode : Lossy
Stream size : 254 MiB (9%)
Title : MPEG7 | www.cinemakottaga.ml
Language : Tamil
Default : Yes
Forced : No

Audio #2
ID : 3
Format : AAC LC SBR
Format/Info : Advanced Audio Codec Low Complexity with Spectral Band Replication
Commercial name : HE-AAC
Format settings : NBC
Codec ID : A_AAC-5
Duration : 2 h 38 min
Bit rate : 224 kb/s
Channel(s) : 6 channels
Channel layout : C L R Ls Rs LFE
Sampling rate : 48.0 kHz
Frame rate : 23.438 FPS (2048 SPF)
Compression mode : Lossy
Stream size : 254 MiB (9%)
Title : MPEG7 | www.cinemakottaga.ml
Language : Malayalam
Default : Yes
Forced : No

Audio #3
ID : 4
Format : AAC LC SBR
Format/Info : Advanced Audio Codec Low Complexity with Spectral Band Replication
Commercial name : HE-AAC
Format settings : NBC
Codec ID : A_AAC-5
Duration : 2 h 38 min
Bit rate : 224 kb/s
Channel(s) : 6 channels
Channel layout : C L R Ls Rs LFE
Sampling rate : 48.0 kHz
Frame rate : 23.438 FPS (2048 SPF)
Compression mode : Lossy
Stream size : 254 MiB (9%)
Title : MPEG7 | www.cinemakottaga.ml
Language : Telugu
Default : Yes
Forced : No

Audio #4
ID : 5
Format : AAC LC SBR
Format/Info : Advanced Audio Codec Low Complexity with Spectral Band Replication
Commercial name : HE-AAC
Format settings : NBC
Codec ID : A_AAC-5
Duration : 2 h 38 min
Bit rate : 224 kb/s
Channel(s) : 6 channels
Channel layout : C L R Ls Rs LFE
Sampling rate : 48.0 kHz
Frame rate : 23.438 FPS (2048 SPF)
Compression mode : Lossy
Stream size : 254 MiB (9%)
Title : MPEG7 | www.cinemakottaga.ml
Language : English
Default : Yes
Forced : No

Audio #5
ID : 6
Format : AAC LC SBR
Format/Info : Advanced Audio Codec Low Complexity with Spectral Band Replication
Commercial name : HE-AAC
Format settings : NBC
Codec ID : A_AAC-5
Duration : 2 h 38 min
Bit rate : 224 kb/s
Channel(s) : 6 channels
Channel layout : C L R Ls Rs LFE
Sampling rate : 48.0 kHz
Frame rate : 23.438 FPS (2048 SPF)
Compression mode : Lossy
Stream size : 254 MiB (9%)
Title : MPEG7 | www.cinemakottaga.ml
Language : Hindi
Default : Yes
Forced : No

Text #1
ID : 7
Format : UTF-8
Codec ID : S_TEXT/UTF8
Codec ID/Info : UTF-8 Plain Text
Duration : 2 h 36 min
Bit rate : 62 b/s
Count of elements : 2213
Stream size : 72.1 KiB (0%)
Title : MPEG7 | www.cinemakottaga.ml
Language : English
Default : Yes
Forced : No

Text #2
ID : 8
Format : UTF-8
Codec ID : S_TEXT/UTF8
Codec ID/Info : UTF-8 Plain Text
Duration : 2 h 37 min
Bit rate : 165 b/s
Count of elements : 2231
Stream size : 190 KiB (0%)
Title : MPEG7 | www.cinemakottaga.ml
Language : Hindi
Default : No
Forced : No

Text #3
ID : 9
Format : UTF-8
Codec ID : S_TEXT/UTF8
Codec ID/Info : UTF-8 Plain Text
Duration : 2 h 36 min
Bit rate : 213 b/s
Count of elements : 2525
Stream size : 245 KiB (0%)
Title : MPEG7 | www.cinemakottaga.ml
Language : Tamil
Default : No
Forced : No

Text #4
ID : 10
Format : UTF-8
Codec ID : S_TEXT/UTF8
Codec ID/Info : UTF-8 Plain Text
Duration : 2 h 32 min
Bit rate : 24 b/s
Count of elements : 317
Stream size : 27.7 KiB (0%)
Title : MPEG7 | www.cinemakottaga.ml
Language : Tamil
Default : No
Forced : Yes

Text #5
ID : 11
Format : UTF-8
Codec ID : S_TEXT/UTF8
Codec ID/Info : UTF-8 Plain Text
Duration : 2 h 36 min
Bit rate : 62 b/s
Count of elements : 2212
Stream size : 72.1 KiB (0%)
Title : MPEG7 | www.cinemakottaga.ml
Language : English
Default : No
Forced : No

Text #6
ID : 12
Format : UTF-8
Codec ID : S_TEXT/UTF8
Codec ID/Info : UTF-8 Plain Text
Duration : 2 h 37 min
Bit rate : 60 b/s
Count of elements : 2174
Stream size : 69.5 KiB (0%)
Title : MPEG7 | www.cinemakottaga.ml
Language : Dutch
Default : No
Forced : No

Text #7
ID : 13
Format : UTF-8
Codec ID : S_TEXT/UTF8
Codec ID/Info : UTF-8 Plain Text
Duration : 2 h 37 min
Bit rate : 65 b/s
Count of elements : 2207
Stream size : 74.9 KiB (0%)
Title : MPEG7 | www.cinemakottaga.ml
Language : French
Default : No
Forced : No

Text #8
ID : 14
Format : UTF-8
Codec ID : S_TEXT/UTF8
Codec ID/Info : UTF-8 Plain Text
Duration : 2 h 37 min
Bit rate : 63 b/s
Count of elements : 2227
Stream size : 73.3 KiB (0%)
Title : MPEG7 | www.cinemakottaga.ml
Language : German
Default : No
Forced : No

Text #9
ID : 15
Format : UTF-8
Codec ID : S_TEXT/UTF8
Codec ID/Info : UTF-8 Plain Text
Duration : 2 h 37 min
Bit rate : 55 b/s
Count of elements : 2227
Stream size : 63.6 KiB (0%)
Title : MPEG7 | www.cinemakottaga.ml
Language : Spanish
Default : No
Forced : No

 

Telegram  Download Guide  Donate

Jagame Thandhiram (2021)
Jagame Thandhiram (2021)
Jagame Thandhiram (2021)
Jagame Thandhiram (2021)
Jagame Thandhiram (2021)
Original title ஜகமே தந்திரம்
IMDb Rating 8.3 844 votes

Similar titles

Rocco and His Brothers (1960)
Boogie Nights (1997)
RoboCop (1987)
Vishudhan(2013)
303 (2018)
Big B
Sapthamashree Thaskaraha(2014)
Sunflower (2006)
Crazy About Her (2021)
Maestro (2021)
Lola Versus (2012)
Devasuram
CinemaKottaga