Video Sources 2372 Views

  • Watch trailer
Jai Bhim (2021)

Jai Bhim (2021)

Nov. 02, 2021India164 Min.N/A
Your rating: 0
9.5 2 votes

Synopsis

A pregnant woman from a primitive tribal community, searches desperately for her husband, who is missing from police custody. So as to find her husband and seek justice for them, as their voice, a High Court advocate rises in support. Will their battle for justice succeed?

Jai Bhim (2021) Tamil 1080p 10bit AMZN WEB-DL DDP 5.1 HEVC MPEG7 (3.4GB)

Source …: Jai.Bhim.2021.2160p.AMZN.WEB-DL.HIN-TAM.DDP5.1.HEVC-Telly

Format : Matroska
Format version : Version 4
File size : 3.41 GiB
Duration : 2 h 44 min
Overall bit rate : 2 974 kb/s
Movie name : MPEG7 | Jai.Bhim.2021.Tamil.1080p.10bit.AMZN.WEB-DL.DDP.6CH.HEVC-MPEG7 | www.cinemakottaga.ml
Encoded date : UTC 2021-11-06 09:26:12
Writing application : mkvmerge v62.0.0 (‘Apollo’) 64-bit
Writing library : libebml v1.4.2 + libmatroska v1.6.4
Cover : Yes
Attachments : cover.jpg

Video
ID : 1
Format : HEVC
Format/Info : High Efficiency Video Coding
Format profile : Main 10@L4@Main
Codec ID : V_MPEGH/ISO/HEVC
Duration : 2 h 44 min
Bit rate : 2 524 kb/s
Width : 1 920 pixels
Height : 806 pixels
Display aspect ratio : 2.40:1
Frame rate mode : Constant
Frame rate : 24.000 FPS
Color space : YUV
Chroma subsampling : 4:2:0
Bit depth : 10 bits
Bits/(Pixel*Frame) : 0.068
Stream size : 2.89 GiB (85%)
Title : MPEG7 | www.cinemakottaga.ml
Default : Yes
Forced : No
Color range : Limited

Audio
ID : 2
Format : E-AC-3
Format/Info : Enhanced AC-3
Commercial name : Dolby Digital Plus
Codec ID : A_EAC3
Duration : 2 h 44 min
Bit rate mode : Constant
Bit rate : 448 kb/s
Channel(s) : 6 channels
Channel layout : L R C LFE Ls Rs
Sampling rate : 48.0 kHz
Frame rate : 31.250 FPS (1536 SPF)
Bit depth : 32 bits
Compression mode : Lossy
Stream size : 526 MiB (15%)
Title : MPEG7 | www.cinemakottaga.ml
Language : Tamil
Service kind : Complete Main
Default : No
Forced : No

Text
ID : 3
Format : UTF-8
Codec ID : S_TEXT/UTF8
Codec ID/Info : UTF-8 Plain Text
Duration : 2 h 40 min
Bit rate : 75 b/s
Count of elements : 2408
Stream size : 88.4 KiB (0%)
Title : MPEG7 | www.cinemakottaga.ml
Language : English
Default : Yes
Forced : No

Jai Bhim (2021) Tamil 1080p AMZN WEB-DL 10bit AV1 Opus 5.1-SMK (970 MB)

Format : Matroska
Format version : Version 4
File size : 969 MiB
Duration : 2 h 44 min
Overall bit rate : 826 kb/s
Writing application : mkvmerge v61.0.0 (‘So’) 64-bit
Writing library : libebml v1.4.2 + libmatroska v1.6.4

Video
ID : 1
Format : AV1
Format/Info : AOMedia Video 1
Format profile : Main@L4.0
Codec ID : V_AV1
Duration : 2 h 44 min
Bit rate : 630 kb/s
Width : 1 920 pixels
Height : 816 pixels
Display aspect ratio : 2.35:1
Frame rate mode : Variable
Frame rate : 24.000 FPS
Color space : YUV
Chroma subsampling : 4:2:0
Bit depth : 10 bits
Bits/(Pixel*Frame) : 0.017
Stream size : 739 MiB (76%)
Color range : Limited
Color primaries : BT.709
Transfer characteristics : BT.709
Matrix coefficients : BT.709

Audio
ID : 2
Format : Opus
Codec ID : A_OPUS
Duration : 2 h 44 min
Bit rate : 193 kb/s
Channel(s) : 6 channels
Channel layout : L R C Lb Rb LFE
Sampling rate : 48.0 kHz
Frame rate : 50.000 FPS (960 SPF)
Compression mode : Lossy
Stream size : 226 MiB (23%)
Title : TheDNK – [DDP 5.1 – 640Kbps]
Writing library : Lavc59.3.102 libopus
Language : Tamil

Text
ID : 3
Format : UTF-8
Codec ID : S_TEXT/UTF8
Languge : English

Jai Bhim (2021) 1080p 10bit AMZN WEB-DL 6CH AV1 MPEG7 (1.2GB)

Source …: Jai.Bhim.2021.2160p.AMZN.WEB-DL.HIN-TAM.DDP5.1.HEVC-Telly

Format : Matroska
Format version : Version 4
File size : 1.24 GiB
Duration : 2 h 44 min
Overall bit rate : 1 081 kb/s
Movie name : MPEG7 | Jai.Bhim.2021.Tamil.1080p.10bit.WEB-DL.6CH.AV1-MPEG7 | www.cinemakottaga.ml
Encoded date : UTC 2021-11-07 09:48:46
Writing application : mkvmerge v62.0.0 (‘Apollo’) 64-bit
Writing library : libebml v1.4.2 + libmatroska v1.6.4
Cover : Yes
Attachments : cover.jpg

Video
ID : 1
Format : AV1
Format/Info : AOMedia Video 1
Format profile : Main@L4.0
Codec ID : V_AV1
Duration : 2 h 44 min
Bit rate : 887 kb/s
Width : 1 920 pixels
Height : 808 pixels
Display aspect ratio : 2.40:1
Frame rate mode : Constant
Frame rate : 24.000 FPS
Color space : YUV
Chroma subsampling : 4:2:0
Bit depth : 10 bits
Bits/(Pixel*Frame) : 0.024
Stream size : 1.02 GiB (82%)
Title : MPEG7 | www.cinemakottaga.ml
Default : Yes
Forced : No
Color range : Limited
Color primaries : BT.709
Transfer characteristics : BT.709
Matrix coefficients : BT.709

Audio
ID : 2
Format : AAC LC SBR
Format/Info : Advanced Audio Codec Low Complexity with Spectral Band Replication
Commercial name : HE-AAC
Format settings : NBC
Codec ID : A_AAC-5
Duration : 2 h 44 min
Bit rate : 192 kb/s
Channel(s) : 6 channels
Channel layout : C L R Ls Rs LFE
Sampling rate : 48.0 kHz
Frame rate : 23.438 FPS (2048 SPF)
Compression mode : Lossy
Stream size : 225 MiB (18%)
Title : MPEG7 | www.cinemakottaga.ml
Language : Tamil
Default : Yes
Forced : No

Text
ID : 3
Format : UTF-8
Codec ID : S_TEXT/UTF8
Codec ID/Info : UTF-8 Plain Text
Duration : 2 h 40 min
Bit rate : 75 b/s
Count of elements : 2408
Stream size : 88.4 KiB (0%)
Title : MPEG7 | www.cinemakottaga.ml
Language : English
Default : Yes
Forced : No

Jai Bhim (2021) 720p 10bit AMZN WEB-DL Opus 2.0 AV1 MPEG7 (540MB)

Source …: Jai.Bhim.2021.2160p.AMZN.WEB-DL.HIN-TAM.DDP5.1.HEVC-Telly

Format : Matroska
Format version : Version 4
File size : 539 MiB
Duration : 2 h 44 min
Overall bit rate : 459 kb/s
Movie name : MPEG7 | Jai.Bhim.2021.Tamil.720p.10bit.AMZN.WEB-DL.2CH.AV1-MPEG7 | www.cinemakottaga.ml
Encoded date : UTC 2021-11-08 07:12:21
Writing application : mkvmerge v62.0.0 (‘Apollo’) 64-bit
Writing library : libebml v1.4.2 + libmatroska v1.6.4
Cover : Yes
Attachments : cover.jpg

Video
ID : 1
Format : AV1
Format/Info : AOMedia Video 1
Format profile : Main@L3.1
Codec ID : V_AV1
Duration : 2 h 44 min
Bit rate : 395 kb/s
Width : 1 280 pixels
Height : 536 pixels
Display aspect ratio : 2.40:1
Frame rate mode : Constant
Frame rate : 24.000 FPS
Color space : YUV
Chroma subsampling : 4:2:0
Bit depth : 10 bits
Bits/(Pixel*Frame) : 0.024
Stream size : 464 MiB (86%)
Title : MPEG7 | www.cinemakottaga.ml
Default : Yes
Forced : No
Color range : Limited
Color primaries : BT.709
Transfer characteristics : BT.709
Matrix coefficients : BT.709

Audio
ID : 2
Format : Opus
Codec ID : A_OPUS
Duration : 2 h 44 min
Bit rate : 61.5 kb/s
Channel(s) : 2 channels
Channel layout : L R
Sampling rate : 48.0 kHz
Frame rate : 50.000 FPS (960 SPF)
Compression mode : Lossy
Stream size : 72.2 MiB (13%)
Title : MPEG7 | www.cinemakottaga.ml
Writing library : ShanaEncoder
Language : Tamil
Default : Yes
Forced : No

Text
ID : 3
Format : UTF-8
Codec ID : S_TEXT/UTF8
Codec ID/Info : UTF-8 Plain Text
Duration : 2 h 40 min
Bit rate : 75 b/s
Count of elements : 2408
Stream size : 88.4 KiB (0%)
Title : MPEG7 | www.cinemakottaga.ml
Language : English
Default : Yes
Forced : No

Jai Bhim (2021) 720p AMZN WEB-DL HEVC 10bit Opus 2.0 PoOlLa (870 MB)

Format : Matroska
Format version : Version 4
File size : 872 MiB
Duration : 2 h 44 min
Overall bit rate : 744 kb/s
Comment : Ripped By PoOlLa @ cinemakottaga.ml

Video
ID : 1
Format : HEVC
Format/Info : High Efficiency Video Coding
Format profile : Main 10@L4@Main
Codec ID : V_MPEGH/ISO/HEVC
Duration : 2 h 44 min
Width : 1 280 pixels
Height : 544 pixels
Display aspect ratio : 2.35:1
Frame rate mode : Variable
Original frame rate : 24.000 FPS
Color space : YUV
Chroma subsampling : 4:2:0
Bit depth : 10 bits
Writing library : Lavc58.134.100 libx265
Color range : Limited
Color primaries : BT.709
Transfer characteristics : BT.709
Matrix coefficients : BT.709

Audio
ID : 2
Format : Opus
Codec ID : A_OPUS
Duration : 2 h 44 min
Channel(s) : 2 channels
Channel layout : L R
Sampling rate : 48.0 kHz
Bit depth : 32 bits
Compression mode : Lossy
Writing library : Lavc58.134.100 libopus

Text
ID : 3
Format : UTF-8
Codec ID : S_TEXT/UTF8
Duration : 2 h 40 min
Language : English

Jai Bhim (2021) Hindi 1080p 10bit AMZN WEB-DL DDP 5.1 HEVC MPEG7 (3.4GB)

Source …: Jai.Bhim.2021.2160p.AMZN.WEB-DL.HIN-TAM.DDP5.1.HEVC-Telly

Format : Matroska
Format version : Version 4
File size : 3.41 GiB
Duration : 2 h 44 min
Overall bit rate : 2 974 kb/s
Movie name : MPEG7 | Jai.Bhim.2021.Hindi.1080p.10bit.AMZN.WEB-DL.DDP.6CH.HEVC-MPEG7 | www.cinemakottaga.ml
Encoded date : UTC 2021-11-06 09:28:13
Writing application : mkvmerge v62.0.0 (‘Apollo’) 64-bit
Writing library : libebml v1.4.2 + libmatroska v1.6.4
Cover : Yes
Attachments : cover.jpg

Video
ID : 1
Format : HEVC
Format/Info : High Efficiency Video Coding
Format profile : Main 10@L4@Main
Codec ID : V_MPEGH/ISO/HEVC
Duration : 2 h 44 min
Bit rate : 2 524 kb/s
Width : 1 920 pixels
Height : 806 pixels
Display aspect ratio : 2.40:1
Frame rate mode : Constant
Frame rate : 24.000 FPS
Color space : YUV
Chroma subsampling : 4:2:0
Bit depth : 10 bits
Bits/(Pixel*Frame) : 0.068
Stream size : 2.89 GiB (85%)
Title : MPEG7 | www.cinemakottaga.ml
Default : Yes
Forced : No
Color range : Limited

Audio
ID : 2
Format : E-AC-3
Format/Info : Enhanced AC-3
Commercial name : Dolby Digital Plus
Codec ID : A_EAC3
Duration : 2 h 44 min
Bit rate mode : Constant
Bit rate : 448 kb/s
Channel(s) : 6 channels
Channel layout : L R C LFE Ls Rs
Sampling rate : 48.0 kHz
Frame rate : 31.250 FPS (1536 SPF)
Bit depth : 32 bits
Compression mode : Lossy
Stream size : 526 MiB (15%)
Title : MPEG7 | www.cinemakottaga.ml
Language : Hindi
Service kind : Complete Main
Default : Yes
Forced : No

Text
ID : 3
Format : UTF-8
Codec ID : S_TEXT/UTF8
Codec ID/Info : UTF-8 Plain Text
Duration : 2 h 40 min
Bit rate : 75 b/s
Count of elements : 2408
Stream size : 88.4 KiB (0%)
Title : MPEG7 | www.cinemakottaga.ml
Language : English
Default : Yes
Forced : No

 

Telegram  Download Guide  Donate

Jai Bhim (2021)
Jai Bhim (2021)
Jai Bhim (2021)
Jai Bhim (2021)
Jai Bhim (2021)
Jai Bhim (2021)
Jai Bhim (2021)
Jai Bhim (2021)
Jai Bhim (2021)
Jai Bhim (2021)
Original title ஜெய் பீம்
IMDb Rating N/A N/A votes
TMDb Rating 6.7 3 votes

Director

Cast

Similar titles

Not One Less (2000)
Mank (2020)
Come and See (1985)
No Smoking (2007)
Valley of Flowers (2006)
Remember (2015)
Into the White (2012)
Mr. & Mrs. Smith (2005)
Baaria (2009)
Cold War (2018)
Ghost (1990)
The Third Murder (2017)
CinemaKottaga