Joji (2021)

Joji (2021)

Apr. 07, 2021IndiaN/A
Your rating: 0
9 1 vote

Synopsis

Joji, an engineering dropout and the youngest son of a rich family lives with his aspirations of becoming super wealthy. Driven by greed and blind ambition, he decides to execute his plans following an unexpected event in the family.

Joji (2021) 2160p AMZN WEB-DL HEVC 10bit DDP 5.1 PoOlLa (3.3 GB)

Format : Matroska
Format version : Version 4
File size : 3.31 GiB
Duration : 1 h 53 min
Overall bit rate : 4 173 kb/s
Writing application : Lavf58.76.100
Writing library : Lavf58.76.100
Comment : Ripped By PoOlLa @ cinemakottaga.ml
ErrorDetectionType : Per level 1

Video
ID : 1
Format : HEVC
Format/Info : High Efficiency Video Coding
Format profile : Main [email protected]@Main
Codec ID : V_MPEGH/ISO/HEVC
Duration : 1 h 53 min
Bit rate : 3 450 kb/s
Width : 3 840 pixels
Height : 2 072 pixels
Display aspect ratio : 1.85:1
Frame rate mode : Constant
Frame rate : 24.000 FPS
Color space : YUV
Chroma subsampling : 4:2:0
Bit depth : 10 bits
Bits/(Pixel*Frame) : 0.018
Stream size : 2.74 GiB (83%)
Writing library : Lavc58.134.100 hevc_nvenc
Default : Yes
Forced : No
Color range : Limited
Color primaries : BT.709
Transfer characteristics : BT.709
Matrix coefficients : BT.709

Audio
ID : 2
Format : E-AC-3
Format/Info : Enhanced AC-3
Commercial name : Dolby Digital Plus
Codec ID : A_EAC3
Duration : 1 h 53 min
Bit rate mode : Constant
Bit rate : 640 kb/s
Channel(s) : 6 channels
Channel layout : L R C LFE Ls Rs
Sampling rate : 48.0 kHz
Frame rate : 31.250 FPS (1536 SPF)
Bit depth : 32 bits
Compression mode : Lossy
Stream size : 520 MiB (15%)
Service kind : Complete Main
Default : Yes
Forced : No

Text
ID : 3
Format : UTF-8
Codec ID : S_TEXT/UTF8
Codec ID/Info : UTF-8 Plain Text
Duration : 1 h 48 min
Default : Yes
Forced : No

Joji (2021) 720p 10bit AMZN WEB-DL 2CH HEVC MPEG7 (529MB)

Duration : 1hr 53 min

Source : 1080p DDH

Video Format : HEVC

Format/Info : High Efficiency Video Coding

Width : 1 280 pixels

Height : 694 pixels

Bit depth : 10bit

Audio Format : Opus

Channel(s) : 2 channels

Language : Malayalam

Text Format : srt

Language : English

Joji (2021) 720p AMZN WEB-DL HEVC DDP 2.0 HSB (779 MB)

Duration : 1h 53min

Source :

Video Format : HEVC

Format/Info : High Efficiency Video Coding

Width : 1280 pixels

Height : 688 pixels

Bit depth : 8bit

Audio Format : Dolby Digital Plus

Format/Info : EAC3

Channel(s) : 2 channels

Language : Malayalam

Text Format : Srt

Language : English

Joji (2021) 720p AMZN WEB-DL HEVC DDP 5.1 HSB (1.17 GB)

Duration : 1h 53min

Source :

Video Format : HEVC

Format/Info : High Efficiency Video Coding

Width : 1280 pixels

Height : 688 pixels

Bit depth : 8bit

Audio Format : Dolby Digital Plus

Format/Info : EAC3

Channel(s) : 6 channels

Language : Malayalam

Text Format : Srt

Language : English

Joji (2021) 720p AMZN WEB-DL x264 AAC 2.0 PoOlLa (915 MB)

Download Joji (2021)

Format : MPEG-4
Format profile : Base Media
Codec ID : isom (isom/iso2/avc1/mp41)
File size : 915 MiB
Duration : 1 h 53 min
Overall bit rate mode : Variable
Overall bit rate : 1 126 kb/s
Writing application : Lavf58.49.100

Video
ID : 1
Format : AVC
Format/Info : Advanced Video Codec
Format profile : [email protected]
Format settings : CABAC / 4 Ref Frames
Format settings, CABAC : Yes
Format settings, Reference : 4 frames
Codec ID : avc1
Codec ID/Info : Advanced Video Coding
Duration : 1 h 53 min
Bit rate : 965 kb/s
Width : 1 280 pixels
Height : 694 pixels
Display aspect ratio : 1.85:1
Original display aspect rat : 1.85:1
Frame rate mode : Constant
Frame rate : 24.000 FPS
Color space : YUV
Chroma subsampling : 4:2:0
Bit depth : 8 bits
Scan type : Progressive
Bits/(Pixel*Frame) : 0.045
Stream size : 784 MiB (86%)
Writing library : x264 core 161 r3018 db0d417
Color range : Limited
Color primaries : BT.709
Transfer characteristics : BT.709
Matrix coefficients : BT.709
Menus : 0
Codec configuration box : avcC

Audio
ID : 2
Format : AAC LC
Format/Info : Advanced Audio Codec Low Complexity
Codec ID : mp4a-40-2
Duration : 1 h 53 min
Bit rate mode : Variable
Bit rate : 156 kb/s
Maximum bit rate : 160 kb/s
Channel(s) : 2 channels
Channel layout : L R
Sampling rate : 48.0 kHz
Frame rate : 46.875 FPS (1024 SPF)
Compression mode : Lossy
Stream size : 127 MiB (14%)
Default : Yes
Alternate group : 1
Menus : 0

Text
ID : 3
Format : Timed Text
Muxing mode : sbtl
Codec ID : tx3g
Duration : 1 h 48 min
Bit rate mode : Variable
Bit rate : 49 b/s
Stream size : 38.8 KiB (0%)
Default : Yes
Forced : No
Alternate group : 3
Menus : 0

Gdrive  TG  Prime  Mi  Direct

Joji (2021) 1080p 10bit AMZN WEB-DL 6CH HEVC MPEG7 (1.1GB)

Duration : 1hr 53min

Source :

Video Format : HEVC

Format/Info : High Efficiency Video Coding

Width : 1 920 pixels

Height : 1040 pixels

Bit depth : 10bit

Audio Format : AAC

Format/Info : Advanced Audio Codec

Channel(s) : 6 channels

Language : Malayalam

Text Format : srt

Language : English

TG TG MI

Joji (2021) 1080p AMZN WEB-DL 6CH HEVC MPEG7 (1.2GB)

Duration : 1hr 53min

Source : 1080p DDH

Video Format : HEVC

Format/Info : High Efficiency Video Coding

Width : 1 920 pixels

Height : 1040 pixels

Bit depth : 8bit

Audio Format : AAC

Format/Info : Advanced Audio Codec

Channel(s) : 6 channels

Language : Malayalam

Text Format : srt

Language : English

Joji (2021) (1080p 10bit AMZN WEB-DL x265 E-AC3 5.1) [MPEG7] (1.8GB)

Format : Matroska
Format version : Version 4
File size : 1.82 GiB
Duration : 1 h 53 min
Overall bit rate : 2 294 kb/s
Movie name : MPEG7 | Joji (2021) (1080p 10bit AMZN WEB-DL x265 E-AC3 5.1) [MPEG] | www.cinemakottaga.ml
Encoded date : UTC 2021-04-07 11:39:24
Writing application : mkvmerge v56.0.0 (‘Strasbourg / St. Denis’) 64-bit
Writing library : libebml v1.4.2 + libmatroska v1.6.4
Cover : Yes
Attachments : cover.jpg

Video
ID : 1
Format : HEVC
Format/Info : High Efficiency Video Coding
Format profile : Main [email protected]@Main
Codec ID : V_MPEGH/ISO/HEVC
Duration : 1 h 53 min
Bit rate : 1 843 kb/s
Width : 1 920 pixels
Height : 1 040 pixels
Display aspect ratio : 1.85:1
Frame rate mode : Constant
Frame rate : 24.000 FPS
Color space : YUV
Chroma subsampling : 4:2:0
Bit depth : 10 bits
Bits/(Pixel*Frame) : 0.038
Stream size : 1.46 GiB (80%)
Title : MPEG7 | www.cinemakottaga.ml
Default : Yes
Forced : No
Color range : Limited
Color primaries : BT.709
Transfer characteristics : BT.709
Matrix coefficients : BT.709

Audio
ID : 2
Format : E-AC-3
Format/Info : Enhanced AC-3
Commercial name : Dolby Digital Plus
Codec ID : A_EAC3
Duration : 1 h 53 min
Bit rate mode : Constant
Bit rate : 448 kb/s
Channel(s) : 6 channels
Channel layout : L R C LFE Ls Rs
Sampling rate : 48.0 kHz
Frame rate : 31.250 FPS (1536 SPF)
Bit depth : 32 bits
Compression mode : Lossy
Stream size : 364 MiB (20%)
Title : MPEG7 | www.cinemakottaga.ml
Language : Malayalam
Service kind : Complete Main
Default : Yes
Forced : No

Text
ID : 3
Format : UTF-8
Codec ID : S_TEXT/UTF8
Codec ID/Info : UTF-8 Plain Text
Duration : 1 h 47 min
Bit rate : 44 b/s
Count of elements : 1221
Stream size : 34.7 KiB (0%)
Title : MPEG7 | www.cinemakottaga.ml
Language : English
Default : Yes
Forced : No

Telegram  Download Guide  Donate

Joji (2021)
Original title ജോജി
IMDb Rating N/A N/A votes

Similar titles

Mohan Kumar Fans (2021)
Being There (1979)
Su.. Su… Sudhi Vathmeekam
Silk Road (2021)
Synecdoche, New York (2008)
Shirin (2008)
Silent Wedding (2008)
Persona non grata (2005)
La Collectionneuse (1967)
Milestone (2020)
Crouching Tiger, Hidden Dragon (2000)
Parava
CinemaKottaga