Video Sources 177 Views

  • Watch trailer
Journal 64 (2018)

Journal 64 (2018)

Oct. 04, 2018Denmark118 Min.N/A
Your rating: 0
0 0 votes

Synopsis

Copenhagen, Denmark, 2018. A frightening discovery is made in an old apartment. The subsequent investigation of Department Q members leads them to an infamous institution for girls that was suddenly closed in the early sixties.

Journal 64 (2018) 1080p BRrip HEVC 10bit AAC 5.1 PoOlLa (1 Gb)

Format : Matroska
Format version : Version 4
File size : 1.07 GiB
Duration : 1 h 57 min
Overall bit rate : 1 295 kb/s
Movie name : Journal 64 (2018) 1080p BRrip HEVC 10bit AAC 5.1 PoOlLa
Encoded date : UTC 2021-08-01 02:11:45
Writing application : mkvmerge v56.1.0 (‘My Friend’) 64-bit
Writing library : libebml v1.4.2 + libmatroska v1.6.4

Video
ID : 1
Format : HEVC
Format/Info : High Efficiency Video Coding
Format profile : Main [email protected]@High
Codec ID : V_MPEGH/ISO/HEVC
Duration : 1 h 57 min
Bit rate : 948 kb/s
Width : 1 920 pixels
Height : 804 pixels
Display aspect ratio : 2.40:1
Frame rate mode : Constant
Frame rate : 24.000 FPS
Color space : YUV
Chroma subsampling : 4:2:0
Bit depth : 10 bits
Bits/(Pixel*Frame) : 0.026
Stream size : 799 MiB (73%)
Default : Yes
Forced : No
Color range : Limited
Color primaries : BT.709
Transfer characteristics : BT.709
Matrix coefficients : BT.709

Audio
ID : 2
Format : AAC LC
Format/Info : Advanced Audio Codec Low Complexity
Codec ID : A_AAC-2
Duration : 1 h 57 min
Bit rate : 344 kb/s
Channel(s) : 6 channels
Channel layout : C L R Ls Rs LFE
Sampling rate : 48.0 kHz
Frame rate : 46.875 FPS (1024 SPF)
Compression mode : Lossy
Stream size : 290 MiB (27%)
Default : Yes
Forced : No

Text
ID : 3
Format : UTF-8
Codec ID : S_TEXT/UTF8
Codec ID/Info : UTF-8 Plain Text
Duration : 1 h 53 min
Bit rate : 49 b/s
Count of elements : 1098
Stream size : 41.4 KiB (0%)
Language : English
Default : Yes
Forced : No

Journal 64 (2018) 720p BRrip HEVC 10bit Opus 2.0 PoOlLa (370 MB)

Format : Matroska
Format version : Version 4
File size : 371 MiB
Duration : 1 h 57 min
Overall bit rate : 440 kb/s
Movie name : Journal 64 (2018) 720p BRrip HEVC 10bit Opus 2.0 PoOlLa
Encoded date : UTC 2021-08-01 02:10:33
Writing application : mkvmerge v56.1.0 (‘My Friend’) 64-bit
Writing library : libebml v1.4.2 + libmatroska v1.6.4

Video
ID : 1
Format : HEVC
Format/Info : High Efficiency Video Coding
Format profile : Main [email protected]@Main
Codec ID : V_MPEGH/ISO/HEVC
Duration : 1 h 57 min
Bit rate : 381 kb/s
Width : 1 280 pixels
Height : 536 pixels
Display aspect ratio : 2.40:1
Frame rate mode : Variable
Frame rate : 24.000 FPS
Color space : YUV
Chroma subsampling : 4:2:0
Bit depth : 10 bits
Bits/(Pixel*Frame) : 0.023
Stream size : 321 MiB (87%)
Default : Yes
Forced : No
Color range : Limited
Color primaries : BT.709
Transfer characteristics : BT.709
Matrix coefficients : BT.709

Audio
ID : 2
Format : Opus
Codec ID : A_OPUS
Duration : 1 h 57 min
Bit rate : 56.1 kb/s
Channel(s) : 2 channels
Channel layout : L R
Sampling rate : 48.0 kHz
Frame rate : 50.000 FPS (960 SPF)
Bit depth : 24 bits
Compression mode : Lossy
Stream size : 47.3 MiB (13%)
Default : Yes
Forced : No

Text
ID : 3
Format : UTF-8
Codec ID : S_TEXT/UTF8
Codec ID/Info : UTF-8 Plain Text
Duration : 1 h 53 min
Bit rate : 49 b/s
Count of elements : 1098
Stream size : 41.4 KiB (0%)
Language : English
Default : Yes
Forced : No

Telegram  Download Guide  Donate

Journal 64 (2018)
Journal 64 (2018)
Journal 64 (2018)
Journal 64 (2018)
Journal 64 (2018)
Journal 64 (2018)
Journal 64 (2018)
Journal 64 (2018)
Journal 64 (2018)
Journal 64 (2018)
Original title Journal 64
IMDb Rating 7.4 13,858 votes
TMDb Rating 7.3 294 votes

Director

Cast

Nikolaj Lie Kaas isCarl Mørck
Carl Mørck
Fares Fares isHafez el-Assad
Hafez el-Assad
Søren Pilmark isMarcus Jacobsen
Marcus Jacobsen
Luise Skov isGitte Charles
Gitte Charles
Anders Hove isOld Curt Wad
Old Curt Wad

Similar titles

Abhijan (1962)
Kombu (2020)
Saving Private Ryan (1998)
Thoovanathumbikal
Adventures of Krosh (1962)
Warrior (2011)
Cinema Paradiso (1988)
Ennu Ninte Moideen (2015)
Sarabham(2014)
Buried (2010)
Moonstruck (1987)
The Guilty (2021)
CinemaKottaga