Video Sources 189 Views

  • Watch trailer
Jurassic Park (1993)

Jurassic Park (1993)

An adventure 65 million years in the making.Jun. 11, 1993United States127 Min.PG-13
Your rating: 0
0 0 votes

Synopsis

A wealthy entrepreneur secretly creates a theme park featuring living dinosaurs drawn from prehistoric DNA. Before opening day, he invites a team of experts and his two eager grandchildren to experience the park and help calm anxious investors. However, the park is anything but amusing as the security systems go off-line and the dinosaurs escape.

Jurassic.Park.1993.Blu-Ray.1080p.x265.HDR10.Opus 2.0 (366 Kbps).Yautja

General

Unique ID : 50507410558438021423923507131683124779 (0x25FF5F99D0E4052893EDA35862DF362B)

Complete name : Jurassic.Park.1993.Blu-Ray.1080p.x265.HDR10.Opus 2.0 (366 Kbps).Yautja.mkv

Format : Matroska

Format version : Version 4

File size : 4.25 GiB

Duration : 2 h 6 min

Overall bit rate : 4 806 kb/s

Movie name : Jurassic.Park.1993.Blu-Ray.1080p.x265.HDR10.Opus 2.0 (366 Kbps).Yautja

Encoded date : UTC 2021-07-18 19:24:19

Writing application : mkvmerge v56.1.0 (‘My Friend’) 64-bit

Writing library : libebml v1.4.2 + libmatroska v1.6.4

Encoded By : Yautja

 

Video

ID : 1

Format : HEVC

Format/Info : High Efficiency Video Coding

Format profile : Main [email protected]@Main

HDR format : SMPTE ST 2086, HDR10 compatible

Codec ID : V_MPEGH/ISO/HEVC

Duration : 2 h 6 min

Bit rate : 4 428 kb/s

Width : 1 920 pixels

Height : 1 040 pixels

Display aspect ratio : 1.85:1

Frame rate mode : Constant

Frame rate : 23.976 (24000/1001) FPS

Color space : YUV

Chroma subsampling : 4:2:0 (Type 2)

Bit depth : 10 bits

Bits/(Pixel*Frame) : 0.092

Stream size : 3.91 GiB (92%)

Writing library : x265 3.5+10+13-7c9bc0cb14:[Windows][GCC 10.2.0][64 bit] 10bit

Default : Yes

Forced : No

Color range : Limited

Color primaries : BT.2020

Transfer characteristics : PQ

Matrix coefficients : BT.2020 non-constant

Mastering display color primar : Display P3

Mastering display luminance : min: 0.0050 cd/m2, max: 1000 cd/m2

Maximum Content Light Level : 910 cd/m2

Maximum Frame-Average Light Le : 101 cd/m2

 

Audio

ID : 2

Format : Opus

Codec ID : A_OPUS

Duration : 2 h 6 min

Bit rate : 366 kb/s

Channel(s) : 2 channels

Channel layout : L R

Sampling rate : 48.0 kHz

Frame rate : 50.000 FPS (960 SPF)

Compression mode : Lossy

Delay relative to video : 9 ms

Stream size : 331 MiB (8%)

Title : Opus 2.0 366 Kbps

Writing library : Lavc59.1.100 libopus

Language : English

Default : Yes

Forced : No

 

Text

ID : 3

Format : PGS

Muxing mode : zlib

Codec ID : S_HDMV/PGS

Codec ID/Info : Picture based subtitle format used on BDs/HD-DVDs

Duration : 2 h 1 min

Bit rate : 34.9 kb/s

Count of elements : 2834

Stream size : 30.4 MiB (1%)

Title : eng

Language : English

Default : Yes

Forced : No

Jurassic.Park.1993.Blu-Ray.HDR10.720p.x265.10-bit.Opus 2.0 (220 Kbps).Yautja

General

Complete name : Jurassic.Park.1993.Blu-Ray.HDR10.720p.x265.10-bit.Opus 2.0 (220 Kbps).Yautja.mkv

Format : Matroska

Format version : Version 4

File size : 2.16 GiB

Duration : 2 h 6 min

Overall bit rate : 2 450 kb/s

Movie name : Jurassic.Park.1993.Blu-Ray.HDR10.720p.x265.10-bit.Opus 2.0 (220 Kbps).Yautja

Encoded date : UTC 2021-07-16 14:57:36

Writing application : mkvmerge v56.1.0 (‘My Friend’) 64-bit

Writing library : libebml v1.4.2 + libmatroska v1.6.4

Encoded By : Yautja

 

 

Video

ID : 1

Format : HEVC

Format/Info : High Efficiency Video Coding

Format profile : Main [email protected]@Main

HDR format : SMPTE ST 2086, HDR10 compatible

Codec ID : V_MPEGH/ISO/HEVC

Duration : 2 h 6 min

Bit rate : 2 218 kb/s

Width : 1 280 pixels

Height : 688 pixels

Display aspect ratio : 1.85:1

Frame rate mode : Constant

Frame rate : 23.976 (24000/1001) FPS

Color space : YUV

Chroma subsampling : 4:2:0 (Type 2)

Bit depth : 10 bits

Bits/(Pixel*Frame) : 0.105

Stream size : 1.96 GiB (91%)

Writing library : x265 3.5+10+13-7c9bc0cb14:[Windows][GCC 10.2.0][64 bit] 10bit

Forced : No

Color range : Limited

Color primaries : BT.2020

Transfer characteristics : PQ

Matrix coefficients : BT.2020 non-constant

Mastering display color primar : Display P3

Mastering display luminance : min: 0.0050 cd/m2, max: 1000 cd/m2

Maximum Content Light Level : 910 cd/m2

Maximum Frame-Average Light Le : 101 cd/m2

 

 

Audio

ID : 2

Format : Opus

Codec ID : A_OPUS

Duration : 2 h 6 min

Bit rate : 220 kb/s

Channel(s) : 2 channels

Channel layout : L R

Sampling rate : 48.0 kHz

Frame rate : 50.000 FPS (960 SPF)

Compression mode : Lossy

Delay relative to video : 9 ms

Stream size : 199 MiB (9%)

Title : Opus 2.0 220 Kbps

Writing library : Lavc59.1.100 libopus

Language : English

Default : Yes

Forced : No

 

 

Text

ID : 3

Format : PGS

Muxing mode : zlib

Codec ID : S_HDMV/PGS

Codec ID/Info : Picture based subtitle format used on BDs/HD-DVDs

Duration : 2 h 1 min

Bit rate : 34.9 kb/s

Count of elements : 2834

Stream size : 30.4 MiB (1%)

Title : eng

Language : English

Default : Yes

Forced : No

Telegram  Download Guide  Donate

Jurassic Park (1993)
Jurassic Park (1993)
Jurassic Park (1993)
Jurassic Park (1993)
Jurassic Park (1993)
Jurassic Park (1993)
Jurassic Park (1993)
Jurassic Park (1993)
Jurassic Park (1993)
Jurassic Park (1993)
Original title Jurassic Park
IMDb Rating 8.1 892,826 votes
TMDb Rating 7.9 12,399 votes

Director

Cast

Sam Neill isDr. Alan Grant
Dr. Alan Grant
Laura Dern isDr. Ellie Sattler
Dr. Ellie Sattler
Jeff Goldblum isDr. Ian Malcolm
Dr. Ian Malcolm
Bob Peck isRobert Muldoon
Robert Muldoon
Martin Ferrero isDonald Gennaro
Donald Gennaro
BD Wong isDr. Henry Wu
Dr. Henry Wu
Joseph Mazzello isTim Murphy
Tim Murphy
Ariana Richards isLex Murphy
Lex Murphy

Similar titles

Forensic(2020)
Iris: The Movie (2010)
The Master
The Lord of the Rings: The Fellowship of the Ring (2001)
Little Fish (2021)
Rurouni Kenshin: The Final (2021)
The Hobbit: An Unexpected Journey (2012)
Pulimurugan (2016)
Brotherhood of the Wolf (2001)
The Mitchells vs. The Machines (2021)
Enola Holmes (2020)
The Boss Baby: Family Business (2021)
CinemaKottaga