Video Sources 330 Views

  • Watch trailer
Kate (2021)

Kate (2021)

There's no time for mercy.Sep. 10, 2021United States106 Min.R
Your rating: 0
0 0 votes

Synopsis

After she’s irreversibly poisoned, a ruthless criminal operative has less than 24 hours to exact revenge on her enemies and in the process forms an unexpected bond with the daughter of one of her past victims.

Kate (2021) 1080p NF WEB-DL HEVC 10bit HDR AAC 5.1 PoOlLa (950 MB)

Format : Matroska
Format version : Version 4
File size : 955 MiB
Duration : 1 h 46 min
Overall bit rate : 1 256 kb/s
Writing application : mkvmerge v59.0.0 (‘Shining Star’) 64-bit
Writing library : libebml v1.4.2 + libmatroska v1.6.4

Video
ID : 1
Format : HEVC
Format/Info : High Efficiency Video Coding
Format profile : Main [email protected]@High
HDR format : SMPTE ST 2086, HDR10 compatible
Codec ID : V_MPEGH/ISO/HEVC
Duration : 1 h 46 min
Bit rate : 829 kb/s
Width : 1 920 pixels
Height : 800 pixels
Display aspect ratio : 2.40:1
Frame rate mode : Constant
Frame rate : 24.000 FPS
Color space : YUV
Chroma subsampling : 4:2:0 (Type 2)
Bit depth : 10 bits
Bits/(Pixel*Frame) : 0.022
Stream size : 631 MiB (66%)
Title : Encoded by PoOlLa | cinemakottaga.ml
Default : Yes
Forced : No
Color range : Limited
Color primaries : BT.2020
Transfer characteristics : PQ
Matrix coefficients : BT.2020 non-constant
Mastering display color pri : Display P3
Mastering display luminance : min: 0.0050 cd/m2, max: 4000 cd/m2
Maximum Content Light Level : 738 cd/m2
Maximum Frame-Average Light : 157 cd/m2

Audio
ID : 2
Format : AAC LC
Format/Info : Advanced Audio Codec Low Complexity
Codec ID : A_AAC-2
Duration : 1 h 46 min
Bit rate : 424 kb/s
Channel(s) : 6 channels
Channel layout : C L R Ls Rs LFE
Sampling rate : 48.0 kHz
Frame rate : 46.875 FPS (1024 SPF)
Compression mode : Lossy
Stream size : 322 MiB (34%)
Language : English
Default : No
Forced : No

Text
ID : 3
Format : UTF-8
Codec ID : S_TEXT/UTF8
Codec ID/Info : UTF-8 Plain Text
Duration : 1 h 35 min
Bit rate : 47 b/s
Count of elements : 965
Stream size : 33.2 KiB (0%)
Title : English
Language : English

Telegram  Download Guide  Donate

Kate (2021)
Kate (2021)
Kate (2021)
Kate (2021)
Kate (2021)
Kate (2021)
Original title Kate
IMDb Rating N/A N/A votes
TMDb Rating 6.4 37 votes

Similar titles

The Hunt for Red October (1990)
The Legend of Hei (2019)
Adi Kapyare Kootamani (2015)
Buried (2010)
Nobody (2021)
Ghajini (2005)
Arjun Reddy (2017)
Krack (2021)
Padayottam (1982)
One (2021)
Thangamagan (2015)
Kilichundan Mampazham (2003)
CinemaKottaga