Video Sources 1272 Views

  • Watch trailer
Kingdom: Ashin of the North (2021)

Kingdom: Ashin of the North (2021)

And so it begins.Jul. 23, 2021South Korea93 Min.TV-MA
Your rating: 0
5 1 vote

Synopsis

Tragedy, betrayal and a mysterious discovery fuel a woman’s vengeance for the loss of her tribe and family in this special episode of “Kingdom.”

Kingdom Ashin of the North (2021) 1080p NF WEB-DL HEVC 10bit HDR DDP 5.1 Atmos PoOlLa (2 GB)

Format : Matroska
Format version : Version 4
File size : 2.02 GiB
Duration : 1 h 33 min
Overall bit rate : 3 082 kb/s
Writing application : Lavf58.76.100
Writing library : Lavf58.76.100
ErrorDetectionType : Per level 1

Video
ID : 1
Format : HEVC
Format/Info : High Efficiency Video Coding
Format profile : Main [email protected]@High
HDR format : SMPTE ST 2086, HDR10 compatible
Codec ID : V_MPEGH/ISO/HEVC
Duration : 1 h 32 min
Bit rate : 2 253 kb/s
Width : 1 920 pixels
Height : 1 080 pixels
Display aspect ratio : 16:9
Frame rate mode : Constant
Frame rate : 23.976 (24000/1001) FPS
Color space : YUV
Chroma subsampling : 4:2:0 (Type 2)
Bit depth : 10 bits
Bits/(Pixel*Frame) : 0.045
Stream size : 1.46 GiB (72%)
Writing library : Lavc58.134.100 libx265
Default : Yes
Forced : No
Color range : Limited
Color primaries : BT.2020
Transfer characteristics : PQ
Matrix coefficients : BT.2020 non-constant
Mastering display color pri : Display P3
Mastering display luminance : min: 0.0001 cd/m2, max: 1000 cd/m2
Maximum Content Light Level : 1121 cd/m2
Maximum Frame-Average Light : 235 cd/m2

Audio
ID : 2
Format : E-AC-3 JOC
Format/Info : Enhanced AC-3 with Joint Object Coding
Commercial name : Dolby Digital Plus with Dolby Atmos
Codec ID : A_EAC3
Duration : 1 h 33 min
Bit rate mode : Constant
Bit rate : 768 kb/s
Channel(s) : 6 channels
Channel layout : L R C LFE Ls Rs
Sampling rate : 48.0 kHz
Frame rate : 31.250 FPS (1536 SPF)
Bit depth : 32 bits
Compression mode : Lossy
Stream size : 515 MiB (25%)
Service kind : Complete Main
Default : Yes
Forced : No
Complexity index : 16
Number of dynamic objects : 15
Bed channel count : 1 channel
Bed channel configuration : LFE

Text
ID : 3
Format : UTF-8
Codec ID : S_TEXT/UTF8
Codec ID/Info : UTF-8 Plain Text
Duration : 1 h 32 min
Default : Yes
Forced : No

Kingdom Ashin of the North (2021) 1080p NF WEB-DL HEVC 10bit DDP 5.1 Atmos PoOlLa (1.5 GB)

Format : Matroska
Format version : Version 4
File size : 1.51 GiB
Duration : 1 h 33 min
Overall bit rate : 2 311 kb/s
Writing application : Lavf58.76.100
Writing library : Lavf58.76.100
Comment : Ripped By PoOlLa @ cinemakottaga.ml
ErrorDetectionType : Per level 1

Video
ID : 1
Format : HEVC
Format/Info : High Efficiency Video Coding
Format profile : Main [email protected]@Main
Codec ID : V_MPEGH/ISO/HEVC
Duration : 1 h 33 min
Bit rate : 1 497 kb/s
Width : 1 920 pixels
Height : 960 pixels
Display aspect ratio : 2.000
Frame rate mode : Constant
Frame rate : 23.976 (24000/1001) FPS
Color space : YUV
Chroma subsampling : 4:2:0
Bit depth : 10 bits
Bits/(Pixel*Frame) : 0.034
Stream size : 1 005 MiB (65%)
Writing library : Lavc58.134.100 hevc_nvenc
Default : Yes
Forced : No
Color range : Limited

Audio
ID : 2
Format : E-AC-3 JOC
Format/Info : Enhanced AC-3 with Joint Object Coding
Commercial name : Dolby Digital Plus with Dolby Atmos
Codec ID : A_EAC3
Duration : 1 h 33 min
Bit rate mode : Constant
Bit rate : 768 kb/s
Channel(s) : 6 channels
Channel layout : L R C LFE Ls Rs
Sampling rate : 48.0 kHz
Frame rate : 31.250 FPS (1536 SPF)
Bit depth : 32 bits
Compression mode : Lossy
Stream size : 515 MiB (33%)
Service kind : Complete Main
Default : Yes
Forced : No
Complexity index : 16
Number of dynamic objects : 15
Bed channel count : 1 channel
Bed channel configuration : LFE

Text
ID : 3
Format : UTF-8
Codec ID : S_TEXT/UTF8
Codec ID/Info : UTF-8 Plain Text
Duration : 1 h 32 min
Default : Yes
Forced : Yes

Kingdom Ashin of the North (2021) 720p NF WEB-DL HEVC 10bit Dual AAC 2.0 PoOlLa (520 MB)

Format : Matroska
Format version : Version 4
File size : 519 MiB
Duration : 1 h 33 min
Overall bit rate : 773 kb/s
Movie name : Kingdom Ashin of the North (2021) 720p NF WEB-DL HEVC 10bit AAC 2.0 PoOlLa
Encoded date : UTC 2021-07-23 09:16:30
Writing application : mkvmerge v56.1.0 (‘My Friend’) 64-bit
Writing library : libebml v1.4.2 + libmatroska v1.6.4

Video
ID : 1
Format : HEVC
Format/Info : High Efficiency Video Coding
Format profile : Main [email protected]@Main
Codec ID : V_MPEGH/ISO/HEVC
Duration : 1 h 33 min
Bit rate : 635 kb/s
Width : 1 280 pixels
Height : 640 pixels
Display aspect ratio : 2.000
Frame rate mode : Constant
Frame rate : 23.976 (24000/1001) FPS
Color space : YUV
Chroma subsampling : 4:2:0
Bit depth : 10 bits
Bits/(Pixel*Frame) : 0.032
Stream size : 426 MiB (82%)
Default : Yes
Forced : No
Color range : Limited
Color primaries : BT.709
Transfer characteristics : BT.709
Matrix coefficients : BT.709

Audio #1
ID : 2
Format : AAC LC SBR
Format/Info : Advanced Audio Codec Low Complexity with Spectral Band Replication
Commercial name : HE-AAC
Format settings : Explicit
Codec ID : A_AAC-2
Duration : 1 h 33 min
Bit rate : 72.0 kb/s
Channel(s) : 2 channels
Channel layout : L R
Sampling rate : 48.0 kHz
Frame rate : 23.438 FPS (2048 SPF)
Compression mode : Lossy
Delay relative to video : -82 ms
Stream size : 48.3 MiB (9%)
Title : Korean
Language : Korean
Default : Yes
Forced : No

Audio #2
ID : 3
Format : AAC LC SBR
Format/Info : Advanced Audio Codec Low Complexity with Spectral Band Replication
Commercial name : HE-AAC
Format settings : NBC
Codec ID : A_AAC-5
Duration : 1 h 33 min
Bit rate : 64.0 kb/s
Channel(s) : 2 channels
Channel layout : L R
Sampling rate : 48.0 kHz
Frame rate : 23.438 FPS (2048 SPF)
Compression mode : Lossy
Delay relative to video : -105 ms
Stream size : 43.0 MiB (8%)
Title : Korean
Language : English
Default : No
Forced : No

Text
ID : 4
Format : UTF-8
Codec ID : S_TEXT/UTF8
Codec ID/Info : UTF-8 Plain Text
Duration : 1 h 32 min
Bit rate : 19 b/s
Count of elements : 430
Stream size : 13.2 KiB (0%)
Language : English
Default : Yes
Forced : No

Kingdom Ashin of the North (2021) 1080p NF WEB-DL HEVC 10bit KOREAN AAC 5.1 HSB (1.03 GB)

Source …: Kingdom.Ashin.of.the.North.2021.1080p.NF.WEB-DL.DDP5.1.Atmos.H.264-TBD
Runtime ……: 1h 33min
Video ……..: HEVC | 1920 x 960 | 10bit
Audio ……..: 6CH HE-AAC Korean
Subs …………: English

TG GD

Kingdom Ashin of the North (2021) 720p NF WEB-DL HEVC 10bit KOREAN AAC 2.0 HSB (510 MB)

Source …: Kingdom.Ashin.of.the.North.2021.1080p.NF.WEB-DL.DDP5.1.Atmos.H.264-TBD
Runtime ……: 1h 33min
Video ……..: HEVC | 1280 x 640 | 10bit
Audio ……..: 2CH HE-AAC Korean
Subs …………: English

TG GD

Telegram  Download Guide  Donate

Kingdom: Ashin of the North (2021)
Kingdom: Ashin of the North (2021)
Kingdom: Ashin of the North (2021)
Original title 킹덤: 아신전
IMDb Rating N/A N/A votes

Director

Cast

Similar titles

Madrasapattinam (2010)
Ala Vaikunthapurramuloo (2020)
Jungle Cruise (2021)
King Liar
Neon Bull (2016)
Ichi the Killer (2001)
Eden Is West (2009)
The Harmonium in My Memory (1999)
1983 (2014)
The Trial of the Chicago 7
Unhinged (2020)
House of Sand and Fog (2003)
CinemaKottaga