Kuruthi (2021)

Kuruthi (2021)

Aug. 11, 2021India122 Min.N/A
Your rating: 0
0 0 votes

Synopsis

Kuruthi is about how enduring human relations that transcends boundaries struggle to survive trials of hatred and prejudice.

Kuruthi (2021) 1080p AMZN WEB-DL 10bit AV1 DDP 5.1 -SMK (1.1 GB)

Format : Matroska
Format version : Version 4
File size : 1.12 GiB
Duration : 2 h 2 min
Overall bit rate : 1 316 kb/s
Movie name : Kuruthi 2021 1080p AV1 SMK
Encoded date : UTC 2021-08-13 08:52:46
Writing application : mkvmerge v56.1.0 (‘My Friend’) 64-bit
Writing library : libebml v1.4.2 + libmatroska v1.6.4

Video
ID : 1
Format : AV1
Format/Info : AOMedia Video 1
Format profile : [email protected]
Codec ID : V_AV1
Duration : 2 h 2 min
Bit rate : 867 kb/s
Width : 1 920 pixels
Height : 816 pixels
Display aspect ratio : 2.35:1
Frame rate mode : Constant
Frame rate : 24.000 FPS
Color space : YUV
Chroma subsampling : 4:2:0
Bit depth : 10 bits
Bits/(Pixel*Frame) : 0.023
Stream size : 756 MiB (66%)
Default : Yes
Forced : No
Color range : Limited

Audio
ID : 2
Format : E-AC-3
Format/Info : Enhanced AC-3
Commercial name : Dolby Digital Plus
Codec ID : A_EAC3
Duration : 2 h 2 min
Bit rate mode : Constant
Bit rate : 448 kb/s
Channel(s) : 6 channels
Channel layout : L R C LFE Ls Rs
Sampling rate : 48.0 kHz
Frame rate : 31.250 FPS (1536 SPF)
Compression mode : Lossy
Stream size : 391 MiB (34%)
Language : Malayalam
Service kind : Complete Main
Default : Yes
Forced : No

Text
ID : 3
Format : UTF-8
Codec ID : S_TEXT/UTF8
Codec ID/Info : UTF-8 Plain Text
Duration : 1 h 57 min
Bit rate : 42 b/s
Count of elements : 1269
Stream size : 36.8 KiB (0%)
Title : English
Language : English
Default : Yes
Forced : No

Kuruthi (2021) 1080p AMZN WEB-DL 10bit AV1 Opus 5.1 -SMK (980 Mb)

Format : Matroska
Format version : Version 4
File size : 985 MiB
Duration : 2 h 2 min
Overall bit rate : 1 129 kb/s
Movie name : Kuruthi 2021 1080p AV1
Encoded date : UTC 2021-08-11 19:36:09
Writing application : mkvmerge v56.1.0 (‘My Friend’) 64-bit
Writing library : libebml v1.4.2 + libmatroska v1.6.4

Video
ID : 1
Format : AV1
Format/Info : AOMedia Video 1
Format profile : [email protected]
Codec ID : V_AV1
Duration : 2 h 2 min
Bit rate : 867 kb/s
Width : 1 920 pixels
Height : 816 pixels
Display aspect ratio : 2.35:1
Frame rate mode : Constant
Frame rate : 24.000 FPS
Color space : YUV
Chroma subsampling : 4:2:0
Bit depth : 10 bits
Bits/(Pixel*Frame) : 0.023
Stream size : 756 MiB (77%)
Default : Yes
Forced : No
Color range : Limited

Audio
ID : 2
Format : Opus
Codec ID : A_OPUS
Duration : 2 h 2 min
Bit rate : 260 kb/s
Channel(s) : 6 channels
Channel layout : L R C Lb Rb LFE
Sampling rate : 48.0 kHz
Frame rate : 50.000 FPS (960 SPF)
Compression mode : Lossy
Stream size : 227 MiB (23%)
Writing library : Lavc59.1.100 libopus
Language : Malay
Default : No
Forced : No

Text
ID : 3
Format : UTF-8
Codec ID : S_TEXT/UTF8
Codec ID/Info : UTF-8 Plain Text
Duration : 1 h 57 min
Bit rate : 42 b/s
Count of elements : 1269
Stream size : 36.8 KiB (0%)
Title : English
Language : English
Default : No
Forced : No

Kuruthi (2021) 720p AMZN WEB-DL 2CH HEVC-HSB (375 MB)

Format : Matroska
Format version : Version 4
File size : 377 MiB
Duration : 2 h 2 min
Overall bit rate : 432 kb/s
Movie name : HSBRips | Kuruthi.2021.720p.AMZN.WEB-DL.2CH.HEVC.x265-HSB
Encoded date : UTC 2021-08-10 17:02:29
Writing application : mkvmerge v60.0.0 (‘Are We Copies?’) 64-bit
Writing library : libebml v1.4.2 + libmatroska v1.6.4

Video
ID : 1
Format : HEVC
Format/Info : High Efficiency Video Coding
Format profile : [email protected]@Main
Codec ID : V_MPEGH/ISO/HEVC
Duration : 2 h 2 min
Bit rate : 356 kb/s
Width : 1 280 pixels
Height : 544 pixels
Display aspect ratio : 2.35:1
Original display aspect rat : 2.35:1
Frame rate mode : Constant
Frame rate : 24.000 FPS
Standard : NTSC
Color space : YUV
Chroma subsampling : 4:2:0
Bit depth : 8 bits
Bits/(Pixel*Frame) : 0.021
Stream size : 311 MiB (82%)
Default : Yes
Forced : No
Color range : Limited
Color primaries : BT.709
Transfer characteristics : BT.709
Matrix coefficients : BT.709

Audio
ID : 2
Format : AAC LC SBR
Format/Info : Advanced Audio Codec Low Complexity with Spectral Band Replication
Commercial name : HE-AAC
Format settings : Explicit
Codec ID : A_AAC-2
Duration : 2 h 2 min
Bit rate : 74.0 kb/s
Channel(s) : 2 channels
Channel layout : L R
Sampling rate : 48.0 kHz
Frame rate : 23.438 FPS (2048 SPF)
Compression mode : Lossy
Stream size : 64.6 MiB (17%)
Language : Malayalam
Default : Yes
Forced : No

Text
ID : 3
Format : UTF-8
Codec ID : S_TEXT/UTF8
Codec ID/Info : UTF-8 Plain Text
Duration : 1 h 57 min
Bit rate : 42 b/s
Count of elements : 1269
Stream size : 36.8 KiB (0%)
Title : English
Language : English
Default : Yes
Forced : No

Telegram  Download Guide  Donate

Kuruthi (2021)
Original title കുരുതി
IMDb Rating 7.9 3,281 votes
TMDb Rating 8.3 8 votes

Similar titles

Sanak (2021)
The Medium (2021)
Audition (1999)
Kaante (2002)
Unhinged (2020)
Fast Five (2011)
Narasimham(2000)
Fanaa
Iyobinte Pusthakam (2014)
Le Cercle Rouge
Mission: Impossible (1996)
Memories (2013)
CinemaKottaga