Video Sources 285 Views

  • Watch trailer
Lamerica (1994)

Lamerica (1994)

Jan. 01, 1994Italy116 Min.N/A
Your rating: 0
9 1 vote

Synopsis

Download Lamerica (1994)

Download Lamerica (1994)

Fiore, an Italian conman, arrives in post Communist Albania with Gino, his young apprentice, to set up a shoe factory that will never open. The con requires a native Albanian, so they designate Spiro, an impoverished and confused former political prisoner as chairman of the board. When Fiore returns to Italy to get government funds for the project, Spiro unexpectedly disappears and Gino sets out on a journey to find him. The search leads him to discover Spiro’s tragic personal history and witness Albanian poverty firsthand.

Lamerica (1994) 720p DVDrip HEVC 10bit AC3 2.0 PoOlLa (850 MB)

Format : Matroska
Format version : Version 4
File size : 851 MiB
Duration : 1 h 51 min
Overall bit rate : 1 071 kb/s
Writing application : mkvmerge v59.0.0 (‘Shining Star’) 64-bit
Writing library : libebml v1.4.2 + libmatroska v1.6.4

Video
ID : 1
Format : HEVC
Format/Info : High Efficiency Video Coding
Format profile : Main 10@L4@Main
Codec ID : V_MPEGH/ISO/HEVC
Duration : 1 h 51 min
Bit rate : 877 kb/s
Width : 1 280 pixels
Height : 640 pixels
Display aspect ratio : 2.35:1
Frame rate mode : Constant
Frame rate : 25.000 FPS
Color space : YUV
Chroma subsampling : 4:2:0
Bit depth : 10 bits
Bits/(Pixel*Frame) : 0.043
Stream size : 697 MiB (82%)
Title : Encoded by PoOlLa | cinemakottaga.ml
Color range : Limited
Transfer characteristics : BT.709

Audio
ID : 2
ID in the original source m : 189 (0xBD)128 (0x80)
Format : AC-3
Format/Info : Audio Coding 3
Commercial name : Dolby Digital
Format settings : Dolby Surround
Codec ID : A_AC3
Duration : 1 h 51 min
Bit rate mode : Constant
Bit rate : 192 kb/s
Channel(s) : 2 channels
Channel layout : L R
Sampling rate : 48.0 kHz
Frame rate : 31.250 FPS (1536 SPF)
Compression mode : Lossy
Stream size : 153 MiB (18%)
Title : Stereo
Language : Italian
Service kind : Complete Main

Text
ID : 3
Format : UTF-8
Codec ID : S_TEXT/UTF8
Codec ID/Info : UTF-8 Plain Text
Language : English

Lamerica (1994) 480p DVDrip HEVC 10bit AAC 2.0 PoOlLa (480 MB)

Format : Matroska
Format version : Version 4
File size : 439 MiB
Duration : 1 h 51 min
Overall bit rate : 553 kb/s
Writing application : mkvmerge v59.0.0 (‘Shining Star’) 64-bit
Writing library : libebml v1.4.2 + libmatroska v1.6.4

Video
ID : 1
Format : HEVC
Format/Info : High Efficiency Video Coding
Format profile : Main 10@L4@Main
Codec ID : V_MPEGH/ISO/HEVC
Duration : 1 h 51 min
Bit rate : 467 kb/s
Width : 704 pixels
Height : 434 pixels
Display aspect ratio : 2.35:1
Original display aspect rat : 2.35:1
Frame rate mode : Constant
Frame rate : 25.000 FPS
Color space : YUV
Chroma subsampling : 4:2:0
Bit depth : 10 bits
Bits/(Pixel*Frame) : 0.061
Stream size : 371 MiB (84%)
Title : Encoded by PoOlLa | cinemakottaga.ml
Color range : Limited
Transfer characteristics : BT.709

Audio
ID : 2
Format : AAC LC SBR
Format/Info : Advanced Audio Codec Low Complexity with Spectral Band Replication
Commercial name : HE-AAC
Format settings : Explicit
Codec ID : A_AAC-2
Duration : 1 h 51 min
Bit rate : 84.3 kb/s
Channel(s) : 2 channels
Channel layout : L R
Sampling rate : 48.0 kHz
Frame rate : 23.438 FPS (2048 SPF)
Compression mode : Lossy
Delay relative to video : 40 ms
Stream size : 67.0 MiB (15%)
Language : Italian

Text
ID : 3
Format : UTF-8
Codec ID : S_TEXT/UTF8
Stream size : 30.1 KiB (0%)
Language : English

Telegram  Download Guide  Donate

Lamerica (1994)
Original title Lamerica
IMDb Rating 7.5 2,072 votes
TMDb Rating 7.4 36 votes

Director

Cast

Similar titles

The Bourne Identity (2002)
The Best Offer (2013)
Philomena (2013)
Elippathayam (1982)
The Lunchbox (2013)
Blow (2001)
Claire’s Knee (1970)
Bangalore Days
Hera Pheri
Neon Bull (2016)
Mirror
Aadu Oru Bheegara Jeevi Aanu(2015)
CinemaKottaga