Video Sources 106 Views

  • Watch trailer
Lawrence of Arabia (1962)

Lawrence of Arabia (1962)

A mighty motion picture of action and adventure!Dec. 11, 1962United Kingdom227 Min.N/A
Your rating: 0
9 1 vote

Synopsis

The story of British officer T.E. Lawrence’s mission to aid the Arab tribes in their revolt against the Ottoman Empire during the First World War. Lawrence becomes a flamboyant, messianic figure in the cause of Arab unity but his psychological instability threatens to undermine his achievements.

ULawrence of Arabia (1962) 2160p BRrip HEVC 10bit HDR AAC 7.1 PoOlLa (4.6 GB)

Format : Matroska
Format version : Version 4
File size : 4.66 GiB
Duration : 3 h 47 min
Overall bit rate : 2 941 kb/s
Writing application : mkvmerge v59.0.0 (‘Shining Star’) 64-bit
Writing library : libebml v1.4.2 + libmatroska v1.6.4

Video
ID : 1
Format : HEVC
Format/Info : High Efficiency Video Coding
Format profile : Main 10@L5@High
HDR format : SMPTE ST 2086, HDR10 compatible
Codec ID : V_MPEGH/ISO/HEVC
Duration : 3 h 47 min
Bit rate : 2 520 kb/s
Width : 3 840 pixels
Height : 1 746 pixels
Display aspect ratio : 2.2:1
Frame rate mode : Constant
Frame rate : 23.976 (24000/1001) FPS
Color space : YUV
Chroma subsampling : 4:2:0 (Type 2)
Bit depth : 10 bits
Bits/(Pixel*Frame) : 0.016
Stream size : 4.00 GiB (86%)
Title : Encoded by PoOlLa | cinemakottaga.ml
Color range : Limited
Color primaries : BT.2020
Transfer characteristics : PQ
Matrix coefficients : BT.2020 non-constant
Mastering display color pri : Display P3
Mastering display luminance : min: 0.0001 cd/m2, max: 1000 cd/m2
Maximum Content Light Level : 1289 cd/m2
Maximum Frame-Average Light : 364 cd/m2

Audio
ID : 2
Format : AAC LC
Format/Info : Advanced Audio Codec Low Complexity
Codec ID : A_AAC-2
Duration : 3 h 47 min
Bit rate : 419 kb/s
Channel(s) : 8 channels
Channel layout : C L R Ls Rs Lb Rb LFE
Sampling rate : 48.0 kHz
Frame rate : 46.875 FPS (1024 SPF)
Compression mode : Lossy
Delay relative to video : 20 ms
Stream size : 681 MiB (14%)
Language : English

Text
ID : 3
Format : UTF-8
Codec ID : S_TEXT/UTF8
Language : English

Lawrence of Arabia (1962) 1080p BRrip HEVC 10bit HDR AAC 5.1 PoOlLa (2.5 GB)

Format : Matroska
Format version : Version 4
File size : 2.54 GiB
Duration : 3 h 47 min
Overall bit rate : 1 604 kb/s
Writing application : mkvmerge v59.0.0 (‘Shining Star’) 64-bit
Writing library : libebml v1.4.2 + libmatroska v1.6.4

Video
ID : 1
Format : HEVC
Format/Info : High Efficiency Video Coding
Format profile : Main 10@L4@High
HDR format : SMPTE ST 2086, HDR10 compatible
Codec ID : V_MPEGH/ISO/HEVC
Duration : 3 h 47 min
Bit rate : 1 334 kb/s
Width : 1 920 pixels
Height : 872 pixels
Display aspect ratio : 2.2:1
Frame rate mode : Constant
Frame rate : 23.976 (24000/1001) FPS
Color space : YUV
Chroma subsampling : 4:2:0 (Type 2)
Bit depth : 10 bits
Bits/(Pixel*Frame) : 0.033
Stream size : 2.12 GiB (83%)
Title : Encoded by PoOlLa | cinemakottaga.ml
Color range : Limited
Color primaries : BT.2020
Transfer characteristics : PQ
Matrix coefficients : BT.2020 non-constant
Mastering display color pri : Display P3
Mastering display luminance : min: 0.0001 cd/m2, max: 1000 cd/m2
Maximum Content Light Level : 1289 cd/m2
Maximum Frame-Average Light : 364 cd/m2

Audio
ID : 2
Format : AAC LC
Format/Info : Advanced Audio Codec Low Complexity
Codec ID : A_AAC-2
Duration : 3 h 47 min
Bit rate : 265 kb/s
Channel(s) : 6 channels
Channel layout : C L R Ls Rs LFE
Sampling rate : 48.0 kHz
Frame rate : 46.875 FPS (1024 SPF)
Compression mode : Lossy
Delay relative to video : 20 ms
Stream size : 435 MiB (17%)
Title : Atmos 7.1
Language : English

Text
ID : 3
Format : UTF-8
Codec ID : S_TEXT/UTF8
Language : English

Lawrence of Arabia (1962) 720p UHD BRrip HEVC 10bit AAC 2.0 PoOlLa (1 GB)

Format : Matroska
Format version : Version 4
File size : 1.04 GiB
Duration : 3 h 47 min
Overall bit rate : 657 kb/s
Writing application : mkvmerge v59.0.0 (‘Shining Star’) 64-bit
Writing library : libebml v1.4.2 + libmatroska v1.6.4 / ShanaEncoder

Video
ID : 1
Format : HEVC
Format/Info : High Efficiency Video Coding
Format profile : Main 10@L3.1@Main
Codec ID : V_MPEGH/ISO/HEVC
Duration : 3 h 47 min
Bit rate : 591 kb/s
Width : 1 280 pixels
Height : 582 pixels
Display aspect ratio : 2.2:1
Frame rate mode : Constant
Frame rate : 23.976 (24000/1001) FPS
Color space : YUV
Chroma subsampling : 4:2:0
Bit depth : 10 bits
Bits/(Pixel*Frame) : 0.033
Stream size : 960 MiB (90%)
Title : Lawrence of Arabia (1962) 720p UHD BRrip HEVC 10bit AAC 2.0 PoOlLa
Color range : Limited
Color primaries : BT.709
Transfer characteristics : BT.709
Matrix coefficients : BT.709

Audio
ID : 2
Format : AAC LC SBR
Format/Info : Advanced Audio Codec Low Complexity with Spectral Band Replication
Commercial name : HE-AAC
Format settings : NBC
Codec ID : A_AAC-5
Duration : 3 h 47 min
Bit rate : 64.0 kb/s
Channel(s) : 2 channels
Channel layout : L R
Sampling rate : 48.0 kHz
Frame rate : 23.438 FPS (2048 SPF)
Compression mode : Lossy
Delay relative to video : -105 ms
Stream size : 104 MiB (10%)
Language : English

Text
ID : 3
Format : UTF-8
Codec ID : S_TEXT/UTF8
Language : English

Telegram  Download Guide  Donate

Lawrence of Arabia (1962)
Lawrence of Arabia (1962)
Lawrence of Arabia (1962)
Lawrence of Arabia (1962)
Lawrence of Arabia (1962)
Lawrence of Arabia (1962)
Lawrence of Arabia (1962)
Lawrence of Arabia (1962)
Lawrence of Arabia (1962)
Lawrence of Arabia (1962)
Original title Lawrence of Arabia
IMDb Rating 8.3 281,329 votes
TMDb Rating 8 2,173 votes

Director

David Lean
Director

Cast

Peter O'Toole isT.E. Lawrence
T.E. Lawrence
Omar Sharif isSherif Ali
Sherif Ali
Alec Guinness isPrince Feisal
Prince Feisal
Jack Hawkins isGeneral Allenby
General Allenby
Anthony Quinn isAuda abu Tayi
Auda abu Tayi
José Ferrer isTurkish Bey
Turkish Bey
Anthony Quayle isColonel Harry Brighton
Colonel Harry Brighton
Claude Rains isMr. Dryden
Mr. Dryden
Arthur Kennedy isJackson Bentley
Jackson Bentley
Donald Wolfit isGeneral Murray
General Murray

Similar titles

Happy Wedding (2016)
Anbe Sivam (2003)
Raw (2016)
Kutti Story (2021)
Fist of Fury (1972)
The Mauritanian (2021)
Army of Thieves (2021)
The Dark Side of the Heart 2
Arabesque (1966)
Joy House
Dil Bechara (2020)
Shershaah (2021)
CinemaKottaga