Video Sources 55 Views

  • Watch trailer
Lethal Weapon (1987)

Lethal Weapon (1987)

If these two can learn to stand each other... the bad guys don't stand a chance.Mar. 06, 1987United States110 Min.R
Your rating: 0
8 1 vote

Synopsis

Veteran buttoned-down LAPD detective Roger Murtaugh is partnered with unhinged cop Martin Riggs, who — distraught after his wife’s death — has a death wish and takes unnecessary risks with criminals at every turn. The odd couple embark on their first homicide investigation as partners, involving a young woman known to Murtaugh with ties to a drug and prostitution ring.

Lethal.Weapon.1987.720p.10bit.BluRay.x265.2CH.HEVC-MPEG7 (463MB)

Source …: Lethal.Weapon.1987.1080p.BluRay.REMUX.VC-1.DTS-HD.MA.5.1-EPSiLON

Format : Matroska
Format version : Version 4
File size : 463 MiB
Duration : 1 h 49 min
Overall bit rate : 591 kb/s
Movie name : MPEG7 | Lethal.Weapon.1987.720p.10bit.BluRay.x265.2CH.HEVC-MPEG7 | www.cinemakottaga.ml
Encoded date : UTC 2021-11-16 19:21:07
Writing application : mkvmerge v63.0.0 (‘Everything’) 64-bit
Writing library : libebml v1.4.2 + libmatroska v1.6.4 / ShanaEncoder
Cover : Yes
Attachments : cover.jpg

Video
ID : 1
Format : HEVC
Format/Info : High Efficiency Video Coding
Format profile : Main 10@L3.1@Main
Codec ID : V_MPEGH/ISO/HEVC
Duration : 1 h 49 min
Bit rate : 508 kb/s
Width : 1 280 pixels
Height : 720 pixels
Display aspect ratio : 16:9
Frame rate mode : Constant
Frame rate : 23.976 (24000/1001) FPS
Color space : YUV
Chroma subsampling : 4:2:0
Bit depth : 10 bits
Bits/(Pixel*Frame) : 0.023
Stream size : 399 MiB (86%)
Title : MPEG7 | www.cinemakottaga.ml
Default : Yes
Forced : No
Color range : Limited
Color primaries : BT.709
Transfer characteristics : BT.709
Matrix coefficients : BT.709

Audio
ID : 2
Format : AAC LC SBR
Format/Info : Advanced Audio Codec Low Complexity with Spectral Band Replication
Commercial name : HE-AAC
Format settings : NBC
Codec ID : A_AAC-5
Duration : 1 h 49 min
Bit rate : 68.0 kb/s
Channel(s) : 2 channels
Channel layout : L R
Sampling rate : 48.0 kHz
Frame rate : 23.438 FPS (2048 SPF)
Compression mode : Lossy
Delay relative to video : -105 ms
Stream size : 53.3 MiB (12%)
Title : MPEG7 | www.cinemakottaga.ml
Language : English
Default : Yes
Forced : No

Text
ID : 3
Format : PGS
Muxing mode : zlib
Codec ID : S_HDMV/PGS
Codec ID/Info : Picture based subtitle format used on BDs/HD-DVDs
Duration : 1 h 44 min
Bit rate : 30.6 kb/s
Count of elements : 2424
Stream size : 22.9 MiB (5%)
Title : MPEG7 | www.cinemakottaga.ml
Language : English
Default : No
Forced : No

 

Lethal.Weapon.1987.1080p.10bit.BluRay.x265.6CH.HEVC-MPEG7 (1.7GB)

Source …: Lethal.Weapon.1987.1080p.BluRay.REMUX.VC-1.DTS-HD.MA.5.1-EPSiLON

Format : Matroska
Format version : Version 4
File size : 1.71 GiB
Duration : 1 h 49 min
Overall bit rate : 2 231 kb/s
Movie name : MPEG7 | Lethal.Weapon.1987.1080p.10bit.BluRay.x265.6CH.HEVC-MPEG7 | www.cinemakottaga.ml
Encoded date : UTC 2021-11-16 19:18:31
Writing application : mkvmerge v63.0.0 (‘Everything’) 64-bit
Writing library : libebml v1.4.2 + libmatroska v1.6.4
Cover : Yes
Attachments : cover.jpg

Video
ID : 1
Format : HEVC
Format/Info : High Efficiency Video Coding
Format profile : Main 10@L4@High
Codec ID : V_MPEGH/ISO/HEVC
Duration : 1 h 49 min
Bit rate : 1 896 kb/s
Width : 1 920 pixels
Height : 1 080 pixels
Display aspect ratio : 16:9
Frame rate mode : Constant
Frame rate : 23.976 (24000/1001) FPS
Color space : YUV
Chroma subsampling : 4:2:0
Bit depth : 10 bits
Bits/(Pixel*Frame) : 0.038
Stream size : 1.45 GiB (85%)
Title : MPEG7 | www.cinemakottaga.ml
Default : Yes
Forced : No
Color range : Limited

Audio
ID : 2
Format : AAC LC
Format/Info : Advanced Audio Codec Low Complexity
Codec ID : A_AAC-2
Duration : 1 h 49 min
Bit rate : 320 kb/s
Channel(s) : 6 channels
Channel layout : C L R Ls Rs LFE
Sampling rate : 48.0 kHz
Frame rate : 46.875 FPS (1024 SPF)
Compression mode : Lossy
Stream size : 251 MiB (14%)
Title : MPEG7 | www.cinemakottaga.ml
Language : English
Default : Yes
Forced : No

Text
ID : 3
Format : PGS
Muxing mode : zlib
Codec ID : S_HDMV/PGS
Codec ID/Info : Picture based subtitle format used on BDs/HD-DVDs
Duration : 1 h 44 min
Bit rate : 30.6 kb/s
Count of elements : 2424
Stream size : 22.9 MiB (1%)
Title : MPEG7 | www.cinemakottaga.ml
Language : English
Default : No
Forced : No

Menu
00:00:00.000 : en:Credits (Jingle Bell Rock)
00:04:26.099 : en:Two Morning Rituals
00:11:13.839 : en:Pine Needles and Pushers
00:14:53.601 : en:Moment of Truth
00:18:13.300 : en:”Rog, meet your new partner.”
00:23:05.008 : en:A Drug Deal Ignited
00:25:58.390 : en:”You owe me, Roger. Remember?”
00:28:36.047 : en:Saving a Suicide
00:36:45.786 : en:Checking Out an Estate
00:42:59.577 : en:An Evening with the Murtaughs
00:54:12.707 : en:Target Practice
00:57:39.205 : en:Questioning Alfred
01:03:44.237 : en:Sudden Death from the Sky
01:08:10.294 : en:Incident on a Rainy Night
01:10:25.930 : en:Kidnapping (“We’re gonna get bloddy on this one.”)
01:15:17.513 : en:Rendezvous on the Flats
01:23:47.522 : en:A Shocking Intervention
01:29:30.365 : en:Christmas on Hollywood Blvd.
01:36:55.476 : en:Murtaugh’s House
01:38:54.929 : en:A Shot at the Title
01:43:03.010 : en:Joshua’s Last Stand
01:43:48.222 : en:”Merry Christmas, Victoria Lynn.”
01:44:45.904 : en:Too Old for a Yuletide Houseful; End Credits (“I’ll Be Home for Christmas, Lethal)

 

 

Telegram  Download Guide  Donate

Lethal Weapon (1987)
Lethal Weapon (1987)
Lethal Weapon (1987)
Lethal Weapon (1987)
Lethal Weapon (1987)
Lethal Weapon (1987)
Lethal Weapon (1987)
Lethal Weapon (1987)
Lethal Weapon (1987)
Lethal Weapon (1987)
Original title Lethal Weapon
IMDb Rating 7.6 247,438 votes
TMDb Rating 7.3 3,436 votes

Director

Cast

Mel Gibson isMartin Riggs
Martin Riggs
Danny Glover isRoger Murtaugh
Roger Murtaugh
Gary Busey isMr. Joshua
Mr. Joshua
Mitchell Ryan isGeneral Peter McAllister
General Peter McAllister
Tom Atkins isMichael Hunsaker
Michael Hunsaker
Darlene Love isTrish Murtaugh
Trish Murtaugh
Traci Wolfe isRianne Murtaugh
Rianne Murtaugh
Jackie Swanson isAmanda Hunsaker
Amanda Hunsaker
Damon Hines isNick Murtaugh
Nick Murtaugh
Ebonie Smith isCarrie Murtaugh
Carrie Murtaugh

Similar titles

The Suicide Squad (2021)
Ayirathil Oruvan (2010)
Mediterraneo (1991)
Ente Ummante Peru (2018)
Fatherhood (2021)
Happy Wedding (2016)
Pannaiyarum Padminiyum (2014)
Big B
Life of Pi (2012)
Gandharvam (1993)
Maryan (2013)
Kabuliwala (1993)
CinemaKottaga