Lift (2021)

Lift (2021)

Oct. 01, 2021India134 Min.N/A
Your rating: 0
5 1 vote

Synopsis

A usual working day turns unusual for Guru and Harini when they get trapped in their haunted office. A patterned game unlocks a mystery and a lift is their only way out.

Lift (2021) 1080p 10bit DSNP WEB-DL DDP 5.1 HEVC MPEG7 (1.4GB)

Source …: Lift.2021.1080p.HS-DSNP.WEB-DL.DDP5.1.x264-REVOLT

Format : Matroska
Format version : Version 4
File size : 1.40 GiB
Duration : 2 h 14 min
Overall bit rate : 1 485 kb/s
Movie name : MPEG7 | Lift.2021.1080p.DSNP.WEB-DL.DDP.5.1.HEVC-MPEG7 | www.cinemakottaga.ml
Encoded date : UTC 2021-10-02 07:12:40
Writing application : mkvmerge v61.0.0 (‘So’) 64-bit
Writing library : libebml v1.4.2 + libmatroska v1.6.4
Cover : Yes
Attachments : cover.jpg

Video
ID : 1
Format : HEVC
Format/Info : High Efficiency Video Coding
Format profile : Main@L4@Main
Codec ID : V_MPEGH/ISO/HEVC
Duration : 2 h 14 min
Bit rate : 1 290 kb/s
Width : 1 920 pixels
Height : 816 pixels
Display aspect ratio : 2.35:1
Frame rate mode : Constant
Frame rate : 24.000 FPS
Color space : YUV
Chroma subsampling : 4:2:0
Bit depth : 8 bits
Bits/(Pixel*Frame) : 0.034
Stream size : 1.21 GiB (87%)
Title : MPEG7 | www.cinemakottaga.ml
Default : Yes
Forced : No
Color range : Limited
Color primaries : BT.709
Transfer characteristics : BT.709
Matrix coefficients : BT.709

Audio
ID : 2
Format : E-AC-3
Format/Info : Enhanced AC-3
Commercial name : Dolby Digital Plus
Codec ID : A_EAC3
Duration : 2 h 14 min
Bit rate mode : Constant
Bit rate : 192 kb/s
Channel(s) : 6 channels
Channel layout : L R C LFE Ls Rs
Sampling rate : 48.0 kHz
Frame rate : 31.250 FPS (1536 SPF)
Bit depth : 32 bits
Compression mode : Lossy
Stream size : 185 MiB (13%)
Title : MPEG7 | www.cinemakottaga.ml
Language : Tamil
Service kind : Complete Main
Default : Yes
Forced : No

Text
ID : 3
Format : UTF-8
Codec ID : S_TEXT/UTF8
Codec ID/Info : UTF-8 Plain Text
Duration : 2 h 10 min
Bit rate : 48 b/s
Count of elements : 1262
Stream size : 46.1 KiB (0%)
Title : MPEG7 | www.cinemakottaga.ml
Language : English

Lift (2021) 720p 10bit DSNP WEB-DL Opus 2.0 HEVC MPEG7 (535MB)

Source …: Lift.2021.1080p.HS-DSNP.WEB-DL.DDP5.1.x264-REVOLT

Format : Matroska
Format version : Version 4
File size : 535 MiB
Duration : 2 h 14 min
Overall bit rate : 555 kb/s
Movie name : MPEG7 | Lift.2021.720p.10bit.DSNP.WEB-DL.2CH.HEVC-MPEG7 | www.cinemakottaga.ml
Writing application : mkvmerge v61.0.0 (‘So’) 64-bit
Writing library : libebml v1.4.2 + libmatroska v1.6.4

Video
ID : 1
Format : HEVC
Format/Info : High Efficiency Video Coding
Format profile : Main 10@L3.1@Main
Codec ID : V_MPEGH/ISO/HEVC
Duration : 2 h 14 min
Bit rate : 489 kb/s
Width : 1 280 pixels
Height : 544 pixels
Display aspect ratio : 2.35:1
Frame rate mode : Variable
Frame rate : 24.000 FPS
Color space : YUV
Chroma subsampling : 4:2:0
Bit depth : 10 bits
Bits/(Pixel*Frame) : 0.029
Stream size : 471 MiB (88%)
Title : MPEG7 | www.cinemakottaga.ml
Default : Yes
Forced : No
Color range : Limited
Color primaries : BT.709
Transfer characteristics : BT.709
Matrix coefficients : BT.709

Audio
ID : 2
Format : Opus
Codec ID : A_OPUS
Duration : 2 h 14 min
Bit rate : 63.5 kb/s
Channel(s) : 2 channels
Channel layout : L R
Sampling rate : 48.0 kHz
Frame rate : 50.000 FPS (960 SPF)
Bit depth : 32 bits
Compression mode : Lossy
Stream size : 61.2 MiB (11%)
Title : MPEG7 | www.cinemakottaga.ml
Language : Tamil
Default : Yes
Forced : No

Text
ID : 3
Format : UTF-8
Codec ID : S_TEXT/UTF8
Codec ID/Info : UTF-8 Plain Text
Duration : 2 h 10 min
Bit rate : 48 b/s
Count of elements : 1262
Stream size : 46.1 KiB (0%)
Title : MPEG7 | www.cinemakottaga.ml
Language : English

GD TG TG

Lift (2021) 720p HS WEB-DL HEVC 10bit AAC 2.0 PoOlLa (435 MB)

Format : Matroska
Format version : Version 4
File size : 437 MiB
Duration : 2 h 14 min
Overall bit rate : 453 kb/s
Writing application : Lavf58.76.100
Writing library : Lavf58.76.100
Comment : Ripped By PoOlLa @ cinemakottaga.ml
ErrorDetectionType : Per level 1

Video
ID : 1
Format : HEVC
Format/Info : High Efficiency Video Coding
Format profile : Main 10@L3.1@Main
Codec ID : V_MPEGH/ISO/HEVC
Duration : 2 h 14 min
Width : 1 280 pixels
Height : 544 pixels
Display aspect ratio : 2.35:1
Frame rate mode : Constant
Frame rate : 24.000 FPS
Color space : YUV
Chroma subsampling : 4:2:0
Bit depth : 10 bits
Writing library : Lavc58.134.100 libx265
Default : Yes
Forced : No
Color range : Limited
Color primaries : BT.709
Transfer characteristics : BT.709
Matrix coefficients : BT.709

Audio
ID : 2
Format : AAC LC SBR
Format/Info : Advanced Audio Codec Low Complexity with Spectral Band Replication
Commercial name : HE-AAC
Format settings : NBC
Codec ID : A_AAC-5
Duration : 2 h 14 min
Channel(s) : 2 channels
Channel layout : L R
Sampling rate : 48.0 kHz
Frame rate : 23.438 FPS (2048 SPF)
Compression mode : Lossy
Delay relative to video : -105 ms
Writing library : Lavc58.134.100 libfdk_aac
Default : Yes
Forced : No

Text
ID : 3
Format : UTF-8
Codec ID : S_TEXT/UTF8
Codec ID/Info : UTF-8 Plain Text
Duration : 2 h 14 min
Default : Yes

Telegram  Download Guide  Donate

Lift (2021)
Lift (2021)
Lift (2021)
Lift (2021)
Lift (2021)
Lift (2021)
Lift (2021)
Lift (2021)
Original title லிப்ட்
IMDb Rating 9.3 40 votes

Similar titles

Irumbu Thirai (2018)
Eka (2018)
Purple Noon (1960)
Adam Joan (2017)
The Dark Knight Rises (2012)
Jigarthanda (2014)
Roald Dahl’s The Witches (2020)
Burning (2018)
Terrifier
Memento (2000)
Love (2020)
Drishyam 2 (2021)
CinemaKottaga