Little Forest: Summer/Autumn (2014)

Little Forest: Summer/Autumn (2014)

Back to nature.Aug. 30, 2014Japan111 Min.N/A
Your rating: 0
0 0 votes

Synopsis

Abandoned by her mother, young Ichiko leaves her life in the city to live off the land in Komori, a small town nestled among the mountains in rural Japan. Despite the void left by her mother’s disappearance, Ichiko comes to enjoy her independence and revels in her new-found connection with food and the elements. Visually luxuriant, this film follows Ichiko through one summer and autumn, as she learns to use and respect the time-honoured wisdom of rural folk and read the cycle of life and connectedness in the environment around her.

Little Forest Summer Autumn (2014) 1080p BRrip HEVC 10bit AAC 5.1 PoOlLa (1.6 gb)

Download Little Forest: Summer/Autumn (2014)

Format : Matroska
Format version : Version 4
File size : 1.60 GiB
Duration : 1 h 53 min
Overall bit rate : 2 029 kb/s
Movie name : Encoded By PoOlLa | cinemakottaga.ml
Encoded date : UTC 2021-03-13 03:48:03
Writing application : mkvmerge v53.0.0 (‘Fool’s Gold’) 64-bit
Writing library : libebml v1.4.1 + libmatroska v1.6.2

Video
ID : 1
Format : HEVC
Format/Info : High Efficiency Video Coding
Format profile : Main [email protected]@Main
Codec ID : V_MPEGH/ISO/HEVC
Duration : 1 h 53 min
Bit rate : 1 634 kb/s
Width : 1 920 pixels
Height : 1 080 pixels
Display aspect ratio : 16:9
Frame rate mode : Constant
Frame rate : 23.976 (24000/1001) FPS
Color space : YUV
Chroma subsampling : 4:2:0
Bit depth : 10 bits
Bits/(Pixel*Frame) : 0.033
Stream size : 1.29 GiB (81%)
Default : Yes
Forced : No
Color range : Limited
Color primaries : BT.709
Transfer characteristics : BT.709
Matrix coefficients : BT.709

Audio
ID : 2
Format : AAC LC
Format/Info : Advanced Audio Codec Low Complexity
Codec ID : A_AAC-2
Duration : 1 h 53 min
Bit rate : 392 kb/s
Channel(s) : 6 channels
Channel layout : C L R Ls Rs LFE
Sampling rate : 48.0 kHz
Frame rate : 46.875 FPS (1024 SPF)
Compression mode : Lossy
Stream size : 317 MiB (19%)
Language : Japanese
Default : Yes
Forced : No

Text
ID : 3
Format : UTF-8
Codec ID : S_TEXT/UTF8
Codec ID/Info : UTF-8 Plain Text
Duration : 1 h 52 min
Bit rate : 46 b/s
Count of elements : 899
Stream size : 38.5 KiB (0%)
Language : English
Default : Yes
Forced : No

Gdrive  TG  TG

Upd  Mi  Direct

Little Forest Summer Autumn (2014) 720p BRrip HEVC 10bit AAC 2.0 PoOlLa (640 mB)

Download Little Forest: Summer/Autumn (2014)

Format : Matroska
Format version : Version 4
File size : 641 MiB
Duration : 1 h 53 min
Overall bit rate : 792 kb/s
Movie name : Encoded By PoOlLa | cinemakottaga.ml
Encoded date : UTC 2021-03-16 05:02:39
Writing application : mkvmerge v53.0.0 (‘Fool’s Gold’) 64-bit
Writing library : libebml v1.4.1 + libmatroska v1.6.2

Video
ID : 1
Format : HEVC
Format/Info : High Efficiency Video Coding
Format profile : Main [email protected]@Main
Codec ID : V_MPEGH/ISO/HEVC
Duration : 1 h 53 min
Bit rate : 725 kb/s
Width : 1 280 pixels
Height : 720 pixels
Display aspect ratio : 16:9
Frame rate mode : Constant
Frame rate : 23.976 (24000/1001) FPS
Color space : YUV
Chroma subsampling : 4:2:0
Bit depth : 10 bits
Bits/(Pixel*Frame) : 0.033
Stream size : 586 MiB (91%)
Default : Yes
Forced : No
Color range : Limited
Color primaries : BT.709
Transfer characteristics : BT.709
Matrix coefficients : BT.709

Audio
ID : 2
Format : AAC LC SBR
Format/Info : Advanced Audio Codec Low Complexity with Spectral Band Replication
Commercial name : HE-AAC
Format settings : Explicit
Codec ID : A_AAC-2
Duration : 1 h 53 min
Bit rate : 66.2 kb/s
Channel(s) : 2 channels
Channel layout : L R
Sampling rate : 48.0 kHz
Frame rate : 23.438 FPS (2048 SPF)
Compression mode : Lossy
Delay relative to video : 23 ms
Stream size : 53.3 MiB (8%)
Language : Japanese
Default : No
Forced : No

Text
ID : 3
Format : UTF-8
Codec ID : S_TEXT/UTF8
Codec ID/Info : UTF-8 Plain Text
Duration : 1 h 52 min
Bit rate : 46 b/s
Count of elements : 899
Stream size : 38.5 KiB (0%)
Language : English
Default : Yes
Forced : No

Gdrive  TG  TG

Upd  Mi  Direct

Telegram  Download Guide  Donate

Little Forest: Summer/Autumn (2014)
Little Forest: Summer/Autumn (2014)
Little Forest: Summer/Autumn (2014)
Original title リトル・フォレスト 夏・秋
IMDb Rating 7.8 2,312 votes
TMDb Rating 7.6 51 votes

Director

Junichi Mori
Director

Cast

Similar titles

Bigil (2019)
The Curious Case of Benjamin Button
Unnikale Oru Kadha Parayam
James and Alice(2016)
Changeling (2008)
The Postman (1994)
Jar City (2006)
Saawariya
Correspondence (2016)
Biriyaani (2021)
Gulabo Sitabo
Kappela (2020)
CinemaKottaga