Video Sources 131 Views

  • Watch trailer
Loveless (2017)

Loveless (2017)

A Missing Child. A Marriage Destroyed. A Country In Crisis.Jun. 01, 2017Russia122 Min.R
Your rating: 0
0 0 votes

Synopsis

Zhenya and Boris are going through a vicious divorce marked by resentment, frustration and recriminations. Already embarking on new lives, each with a new partner, they are impatient to start again, to turn the page – even if it means threatening to abandon their 12-year-old son Alyosha. Until, after witnessing one of their fights, Alyosha disappears…

Loveless (2017) 1080p BRrip HEVC 10bit DDP 5.1 PoOlLa (2 GB)

Format : Matroska
Format version : Version 4
File size : 2.06 GiB
Duration : 2 h 6 min
Overall bit rate : 2 332 kb/s
Writing application : Lavf58.45.100
Writing library : Lavf58.45.100
Comment : Ripped By PoOlLa @ cinemakottaga.ml
ErrorDetectionType : Per level 1

Video
ID : 1
Format : HEVC
Format/Info : High Efficiency Video Coding
Format profile : Main [email protected]@Main
Codec ID : V_MPEGH/ISO/HEVC
Duration : 2 h 6 min
Bit rate : 1 646 kb/s
Width : 1 920 pixels
Height : 816 pixels
Display aspect ratio : 2.35:1
Frame rate mode : Constant
Frame rate : 23.976 (24000/1001) FPS
Color space : YUV
Chroma subsampling : 4:2:0
Bit depth : 10 bits
Bits/(Pixel*Frame) : 0.044
Stream size : 1.46 GiB (71%)
Writing library : Lavc58.91.100 hevc_nvenc
Default : Yes
Forced : No

Audio
ID : 2
Format : E-AC-3
Format/Info : Enhanced AC-3
Commercial name : Dolby Digital Plus
Codec ID : A_EAC3
Duration : 2 h 6 min
Bit rate mode : Constant
Bit rate : 640 kb/s
Channel(s) : 6 channels
Channel layout : L R C LFE Ls Rs
Sampling rate : 48.0 kHz
Frame rate : 31.250 FPS (1536 SPF)
Bit depth : 16 bits
Compression mode : Lossy
Delay relative to video : -5 ms
Stream size : 580 MiB (27%)
Writing library : Lavc58.91.100 eac3
Service kind : Complete Main
Default : Yes
Forced : No

Text
ID : 3
Format : PGS
Codec ID : S_HDMV/PGS
Codec ID/Info : Picture based subtitle format used on BDs/HD-DVDs
Duration : 2 h 6 min
Default : Yes
Forced : No

Loveless (2017) 1080p BRrip HEVC 10bit AAC 5.1 PoOlLa (1.2 GB)

Format : Matroska
Format version : Version 4
File size : 1.23 GiB
Duration : 2 h 6 min
Overall bit rate : 1 384 kb/s
Writing application : Lavf58.45.100
Writing library : Lavf58.45.100
Comment : Ripped By PoOlLa @ cinemakottaga.ml
ErrorDetectionType : Per level 1

Video
ID : 1
Format : HEVC
Format/Info : High Efficiency Video Coding
Format profile : Main [email protected]@Main
Codec ID : V_MPEGH/ISO/HEVC
Duration : 2 h 6 min
Width : 1 920 pixels
Height : 816 pixels
Display aspect ratio : 2.35:1
Frame rate mode : Constant
Frame rate : 23.976 (24000/1001) FPS
Color space : YUV
Chroma subsampling : 4:2:0
Bit depth : 10 bits
Writing library : Lavc58.91.100 hevc_nvenc
Default : Yes
Forced : No

Audio
ID : 2
Format : AAC LC
Format/Info : Advanced Audio Codec Low Complexity
Codec ID : A_AAC-2
Duration : 2 h 6 min
Channel(s) : 6 channels
Channel layout : C L R Ls Rs LFE
Sampling rate : 48.0 kHz
Frame rate : 46.875 FPS (1024 SPF)
Compression mode : Lossy
Delay relative to video : -43 ms
Writing library : Lavc58.91.100 libfdk_aac
Default : Yes
Forced : No

Text
ID : 3
Format : PGS
Codec ID : S_HDMV/PGS
Codec ID/Info : Picture based subtitle format used on BDs/HD-DVDs
Duration : 2 h 6 min
Default : Yes
Forced : No

Loveless (2017) 720p BRrip HEVC 10bit Opus 2.0 PoOlLa (480 MB)

Format : Matroska
Format version : Version 4
File size : 481 MiB
Duration : 2 h 6 min
Overall bit rate : 530 kb/s
Writing application : Lavf59.2.100
Writing library : Lavf59.2.100
ErrorDetectionType : Per level 1

Video
ID : 1
Format : HEVC
Format/Info : High Efficiency Video Coding
Format profile : Main [email protected]@Main
Codec ID : V_MPEGH/ISO/HEVC
Duration : 2 h 6 min
Width : 1 280 pixels
Height : 544 pixels
Display aspect ratio : 2.35:1
Frame rate mode : Variable
Original frame rate : 23.976 FPS
Color space : YUV
Chroma subsampling : 4:2:0
Bit depth : 10 bits
Writing library : Lavc59.1.100 libx265
Default : Yes
Forced : No
Color range : Limited
Color primaries : BT.709
Transfer characteristics : BT.709
Matrix coefficients : BT.709

Audio
ID : 2
Format : Opus
Codec ID : A_OPUS
Duration : 2 h 6 min
Channel(s) : 2 channels
Channel layout : L R
Sampling rate : 48.0 kHz
Bit depth : 16 bits
Compression mode : Lossy
Writing library : Lavc59.1.100 libopus
Default : Yes
Forced : No

Text
ID : 3
Format : PGS
Codec ID : S_HDMV/PGS
Codec ID/Info : Picture based subtitle format used on BDs/HD-DVDs
Duration : 2 h 6 min
Default : Yes
Forced : No

Telegram  Download Guide  Donate

Loveless (2017)
Loveless (2017)
Loveless (2017)
Loveless (2017)
Loveless (2017)
Original title Нелюбовь
IMDb Rating 7.6 30,983 votes
TMDb Rating 7.4 537 votes

Director

Cast

Similar titles

Veendum Chila Veettukaryangal
Blow (2001)
Claire’s Knee (1970)
Two Men in Town
Rurouni Kenshin: The Beginning (2021)
Magnolia
Run All Night (2015)
The Burnt Orange Heresy (2020)
Raw (2016)
Mucize (2015)
Aaram Thamburan(1997)
Punch-Drunk Love
CinemaKottaga