Video Sources 312 Views

  • Watch trailer
Maanagaram (2017)

Maanagaram (2017)

Mar. 10, 2017India137 Min.N/A
Your rating: 0
0 0 votes

Synopsis

A handful of diverse characters find themselves in extraordinary situations that are interlinked with one another.

Maanagaram (2017) 1080p SS WEB-DL AV1 10bit AC3 5.1 SMK (750 Mb)

Format : Matroska
Format version : Version 4
File size : 751 MiB
Duration : 2 h 10 min
Overall bit rate : 804 kb/s
Movie name : Maanagaram.2017.1080p.SS.WEB-DL.DD5.1.H.264-FINIx
Encoded date : UTC 2021-07-21 12:22:54
Writing application : mkvmerge v56.1.0 (‘My Friend’) 64-bit
Writing library : libebml v1.4.2 + libmatroska v1.6.4

Video
ID : 1
Format : AV1
Format/Info : AOMedia Video 1
Format profile : [email protected]
Codec ID : V_AV1
Duration : 2 h 10 min
Bit rate : 482 kb/s
Width : 1 920 pixels
Height : 1 080 pixels
Display aspect ratio : 16:9
Frame rate mode : Constant
Frame rate : 25.000 FPS
Color space : YUV
Chroma subsampling : 4:2:0
Bit depth : 10 bits
Bits/(Pixel*Frame) : 0.009
Stream size : 451 MiB (60%)
Default : Yes
Forced : No
Color range : Limited

Audio
ID : 2
Format : AC-3
Format/Info : Audio Coding 3
Commercial name : Dolby Digital
Codec ID : A_AC3
Duration : 2 h 10 min
Bit rate mode : Constant
Bit rate : 320 kb/s
Channel(s) : 6 channels
Channel layout : L R C LFE Ls Rs
Sampling rate : 48.0 kHz
Frame rate : 31.250 FPS (1536 SPF)
Compression mode : Lossy
Delay relative to video : 27 ms
Stream size : 299 MiB (40%)
Language : English
Service kind : Complete Main
Default : No
Forced : No

Maanagaram (2017) 1080p SS WEB-DL AV1 10bit OPUS 5.1 SMK (680 Mb)

Format : Matroska
Format version : Version 4
File size : 685 MiB
Duration : 2 h 10 min
Overall bit rate : 733 kb/s
Movie name : Maanagaram.2017.1080p.SS.WEB-DL.AV1.SMK
Encoded date : UTC 2021-07-22 10:37:03
Writing application : mkvmerge v56.1.0 (‘My Friend’) 64-bit
Writing library : libebml v1.4.2 + libmatroska v1.6.4

Video
ID : 1
Format : AV1
Format/Info : AOMedia Video 1
Format profile : [email protected]
Codec ID : V_AV1
Duration : 2 h 10 min
Bit rate : 482 kb/s
Width : 1 920 pixels
Height : 1 080 pixels
Display aspect ratio : 16:9
Frame rate mode : Constant
Frame rate : 25.000 FPS
Color space : YUV
Chroma subsampling : 4:2:0
Bit depth : 10 bits
Bits/(Pixel*Frame) : 0.009
Stream size : 451 MiB (66%)
Default : Yes
Forced : No
Color range : Limited

Audio
ID : 2
Format : Opus
Codec ID : A_OPUS
Duration : 2 h 10 min
Bit rate : 248 kb/s
Channel(s) : 6 channels
Channel layout : L R C Lb Rb LFE
Sampling rate : 48.0 kHz
Frame rate : 50.000 FPS (960 SPF)
Compression mode : Lossy
Delay relative to video : 27 ms
Stream size : 232 MiB (34%)
Writing library : Lavc59.1.100 libopus
Language : Tamil
Default : Yes
Forced : No

Telegram  Download Guide  Donate

Maanagaram (2017)
Maanagaram (2017)
Maanagaram (2017)
Original title மாநகரம்
IMDb Rating 8.2 4,803 votes
TMDb Rating 7.5 33 votes

Similar titles

Chanakyathanthram
The Experiment (2001)
Chehre (2021)
Trumbo (2015)
Supernova
Serenity (2005)
Anjaam Pathiraa
Pizza (2012)
Boomika (2021)
Ramayana: The Legend of Prince Rama (1992)
Law Point
1492: Conquest of Paradise (1992)
CinemaKottaga