Video Sources 807 Views

  • Watch trailer
Mad Max: Fury Road (2015)

Mad Max: Fury Road (2015)

What a Lovely Day.May. 13, 2015Australia121 Min.R
Your rating: 0
6 1 vote

Synopsis

An apocalyptic story set in the furthest reaches of our planet, in a stark desert landscape where humanity is broken, and most everyone is crazed fighting for the necessities of life. Within this world exist two rebels on the run who just might be able to restore order.

720p 10bit BluRay 2CH AAC HEVC MPEG7 671MB)

Source …….: Mad Max – Fury Road 2015 1080p Blu-ray Remux AVC TrueHD Atmos 7.1 – KRaLiMaRKo

Format : Matroska
Format version : Version 4
File size : 671 MiB
Duration : 2 h 1 min
Overall bit rate : 776 kb/s
Movie name : MPEG7 | Mad.Max.Fury.Road.2015.720p.10bit.BluRay.2CH.HEVC-MPEG7 | www.cinemakottaga.ml
Encoded date : UTC 2021-03-14 17:45:13
Writing application : mkvmerge v54.0.0 (‘F Maj Pixie’) 64-bit
Writing library : libebml v1.4.2 + libmatroska v1.6.3
Cover : Yes
Attachments : cover.jpg

Video
ID : 1
Format : HEVC
Format/Info : High Efficiency Video Coding
Format profile : Main 10@L3.1@Main
Codec ID : V_MPEGH/ISO/HEVC
Duration : 2 h 0 min
Bit rate : 705 kb/s
Width : 1 280 pixels
Height : 534 pixels
Display aspect ratio : 2.40:1
Frame rate mode : Constant
Frame rate : 23.976 (24000/1001) FPS
Color space : YUV
Chroma subsampling : 4:2:0
Bit depth : 10 bits
Bits/(Pixel*Frame) : 0.043
Stream size : 607 MiB (90%)
Title : MPEG7 | www.cinemakottaga.ml
Default : Yes
Forced : No
Color range : Limited
Color primaries : BT.709
Transfer characteristics : BT.709
Matrix coefficients : BT.709

Audio
ID : 2
Format : AAC LC SBR
Format/Info : Advanced Audio Codec Low Complexity with Spectral Band Replication
Commercial name : HE-AAC
Format settings : NBC
Codec ID : A_AAC-5
Duration : 2 h 0 min
Bit rate : 72.0 kb/s
Channel(s) : 2 channels
Channel layout : L R
Sampling rate : 48.0 kHz
Frame rate : 23.438 FPS (2048 SPF)
Compression mode : Lossy
Stream size : 62.0 MiB (9%)
Title : MPEG7 | www.cinemakottaga.ml
Language : English
Default : Yes
Forced : No

Text #1
ID : 3
Format : UTF-8
Codec ID : S_TEXT/UTF8
Codec ID/Info : UTF-8 Plain Text
Duration : 2 h 1 min
Bit rate : 27 b/s
Count of elements : 1168
Stream size : 24.7 KiB (0%)
Title : MPEG7 | www.cinemakottaga.ml
Language : English
Default : Yes
Forced : No

Text #2
ID : 4
Format : UTF-8
Codec ID : S_TEXT/UTF8
Codec ID/Info : UTF-8 Plain Text
Duration : 1 h 55 min
Bit rate : 71 b/s
Count of elements : 677
Stream size : 60.2 KiB (0%)
Title : MPEG7 | www.cinemakottaga.ml
Language : Malayalam
Default : No
Forced : No




720p BluRay HEVC Opus 2.0 Yautja (706MB)

Complete name : Mad Max Fury Road 2015 720p Blu-Ray x265 8bit Opus.mkv  Format                         : Matroska  Format version                 : Version 4  File size                      : 706 MiB  Duration                       : 2 h 0 min  Overall bit rate               : 820 kb/s  Movie name                     : Encoded By yautja  Encoded date                   : UTC 2020-05-16 07:05:33  Writing application            : mkvmerge v44.0.0 ('Domino') 64-bit  Writing library                : libebml v1.3.10 + libmatroska v1.5.2    Video  ID                             : 1  Format                         : HEVC  Format/Info                    : High Efficiency Video Coding  Format profile                 : Main@L3.1@Main  Codec ID                       : V_MPEGH/ISO/HEVC  Duration                       : 2 h 0 min  Bit rate                       : 733 kb/s  Width                          : 1 280 pixels  Height                         : 536 pixels  Display aspect ratio           : 2.40:1  Frame rate mode                : Constant  Frame rate                     : 23.976 (24000/1001) FPS  Color space                    : YUV  Chroma subsampling             : 4:2:0  Bit depth                      : 8 bits  Bits/(Pixel*Frame)             : 0.045  Stream size                    : 631 MiB (89%)  Writing library                : x265 3.3+2-gbe2d82093:[Windows][GCC 9.2.0][64 bit] 8bit+10bit+12bit  Default                        : Yes  Forced                         : No  Color range                    : Limited    Audio  ID                             : 2  Format                         : Opus  Codec ID                       : A_OPUS  Duration                       : 2 h 0 min  Bit rate                       : 84.5 kb/s  Channel(s)                     : 2 channels  Channel layout                 : L R  Sampling rate                  : 48.0 kHz  Frame rate                     : 50.000 FPS (960 SPF)  Compression mode               : Lossy  Stream size                    : 72.8 MiB (10%)  Writing library                : Lavc58.71.100 libopus  Language                       : English  Default                        : No  Forced                         : No    Text  ID                             : 3  Format                         : UTF-8  Codec ID                       : S_TEXT/UTF8  Codec ID/Info                  : UTF-8 Plain Text  Duration                       : 1 h 51 min  Bit rate                       : 24 b/s  Count of elements              : 908  Stream size                    : 19.9 KiB (0%)  Default                        : No

 

1080p 10bit BluRay 6CH AAC HEVC MPEG7 (1.6GB)

Source …….: Mad Max – Fury Road 2015 1080p Blu-ray Remux AVC TrueHD Atmos 7.1 – KRaLiMaRKo

Format : Matroska
Format version : Version 4
File size : 1.60 GiB
Duration : 2 h 1 min
Overall bit rate : 1 892 kb/s
Movie name : MPEG7 | Mad.Max.Fury.Road.2015.1080p.10bit.BluRay.6CH.HEVC-MPEG7 | www.cinemakottaga.ml
Encoded date : UTC 2021-03-14 05:54:55
Writing application : mkvmerge v54.0.0 (‘F Maj Pixie’) 64-bit
Writing library : libebml v1.4.2 + libmatroska v1.6.3
Cover : Yes
Attachments : cover.jpg

Video
ID : 1
Format : HEVC
Format/Info : High Efficiency Video Coding
Format profile : Main 10@L4@Main
Codec ID : V_MPEGH/ISO/HEVC
Duration : 2 h 0 min
Bit rate : 1 571 kb/s
Width : 1 920 pixels
Height : 800 pixels
Display aspect ratio : 2.40:1
Frame rate mode : Constant
Frame rate : 23.976 (24000/1001) FPS
Color space : YUV
Chroma subsampling : 4:2:0
Bit depth : 10 bits
Bits/(Pixel*Frame) : 0.043
Stream size : 1.32 GiB (83%)
Title : MPEG7 | www.cinemakottaga.ml
Default : Yes
Forced : No
Color range : Limited
Color primaries : BT.709
Transfer characteristics : BT.709
Matrix coefficients : BT.709

Audio
ID : 2
Format : AAC LC
Format/Info : Advanced Audio Codec Low Complexity
Codec ID : A_AAC-2
Duration : 2 h 0 min
Bit rate : 320 kb/s
Channel(s) : 6 channels
Channel layout : C L R Ls Rs LFE
Sampling rate : 48.0 kHz
Frame rate : 46.875 FPS (1024 SPF)
Compression mode : Lossy
Stream size : 276 MiB (17%)
Title : MPEG7 | www.cinemakottaga.ml
Language : English
Default : Yes
Forced : No

Text #1
ID : 3
Format : UTF-8
Codec ID : S_TEXT/UTF8
Codec ID/Info : UTF-8 Plain Text
Duration : 2 h 1 min
Bit rate : 27 b/s
Count of elements : 1168
Stream size : 24.7 KiB (0%)
Title : MPEG7 | www.cinemakottaga.ml
Language : English
Default : No
Forced : No

Text #2
ID : 4
Format : UTF-8
Codec ID : S_TEXT/UTF8
Codec ID/Info : UTF-8 Plain Text
Duration : 1 h 55 min
Bit rate : 71 b/s
Count of elements : 677
Stream size : 60.2 KiB (0%)
Title : MPEG7 | www.cinemakottaga.ml
Language : Malayalam
Default : No
Forced : No

Text #3
ID : 5
Format : PGS
Muxing mode : zlib
Codec ID : S_HDMV/PGS
Codec ID/Info : Picture based subtitle format used on BDs/HD-DVDs
Duration : 2 h 0 min
Bit rate : 17.6 kb/s
Count of elements : 2334
Stream size : 15.1 MiB (1%)
Title : MPEG7 | www.cinemakottaga.ml
Language : English
Default : Yes
Forced : No

Menu
00:00:00.000 : en:00:00:00.000
00:10:42.475 : en:00:10:42.475
00:19:06.437 : en:00:19:06.437
00:30:12.310 : en:00:30:12.310
00:42:55.615 : en:00:42:55.615
00:49:33.345 : en:00:49:33.345
00:59:55.175 : en:00:59:55.175
01:13:02.545 : en:01:13:02.545
01:22:08.924 : en:01:22:08.924
01:30:02.731 : en:01:30:02.731
01:40:39.867 : en:01:40:39.867
01:49:12.546 : en:01:49:12.546
01:53:06.279 : en:01:53:06.279




1080p 10bit BluRay HDR x265 AAC 7.1 HEVC MPEG7 (3GB)

Source .......: Mad.Max.Fury.Road.2015.2160p.BluRay.REMUX.HEVC.DTS-HD.MA.TrueHD.7.1.Atmos-FGT

Format : Matroska
Format version : Version 4
File size : 3.00 GiB
Duration : 2 h 1 min
Overall bit rate : 3 552 kb/s
Movie name : MPEG7 | Mad Max Fury Road (2015) (1080p 10bit BluRay HDR x265 AAC 7.1) [MPEG7] | www.cinemakottaga.ml
Encoded date : UTC 2021-03-19 20:26:21
Writing application : mkvmerge v54.0.0 ('F Maj Pixie') 64-bit
Writing library : libebml v1.4.2 + libmatroska v1.6.3
Cover : Yes
Attachments : cover.jpg

Video
ID : 1
Format : HEVC
Format/Info : High Efficiency Video Coding
Format profile : Main 10@L4@Main
HDR format : SMPTE ST 2086, HDR10 compatible
Codec ID : V_MPEGH/ISO/HEVC
Duration : 2 h 0 min
Bit rate : 2 955 kb/s
Width : 1 920 pixels
Height : 800 pixels
Display aspect ratio : 2.40:1
Frame rate mode : Constant
Frame rate : 23.976 (24000/1001) FPS
Color space : YUV
Chroma subsampling : 4:2:0 (Type 2)
Bit depth : 10 bits
Bits/(Pixel*Frame) : 0.080
Stream size : 2.48 GiB (83%)
Title : MPEG7 | www.cinemakottaga.ml
Default : Yes
Forced : No
Color range : Limited
Color primaries : BT.2020
Transfer characteristics : PQ
Matrix coefficients : BT.2020 non-constant
Mastering display color pri : Display P3
Mastering display luminance : min: 0.0050 cd/m2, max: 4000 cd/m2
Maximum Content Light Level : 9918 cd/m2
Maximum Frame-Average Light : 3241 cd/m2

Audio
ID : 2
Format : AAC LC
Format/Info : Advanced Audio Codec Low Complexity
Codec ID : A_AAC-2
Duration : 2 h 0 min
Bit rate : 600 kb/s
Channel(s) : 8 channels
Channel layout : C L R Ls Rs Lb Rb LFE
Sampling rate : 48.0 kHz
Frame rate : 46.875 FPS (1024 SPF)
Compression mode : Lossy
Delay relative to video : 1 ms
Stream size : 516 MiB (17%)
Title : MPEG7 | www.cinemakottaga.ml
Language : English
Default : Yes
Forced : No

Text #1
ID : 3
Format : PGS
Muxing mode : zlib
Codec ID : S_HDMV/PGS
Codec ID/Info : Picture based subtitle format used on BDs/HD-DVDs
Duration : 2 h 0 min
Bit rate : 17.6 kb/s
Count of elements : 2334
Stream size : 15.1 MiB (0%)
Title : MPEG7 | www.cinemakottaga.ml
Language : English
Default : Yes
Forced : No

Text #2
ID : 4
Format : UTF-8
Codec ID : S_TEXT/UTF8
Codec ID/Info : UTF-8 Plain Text
Duration : 1 h 55 min
Bit rate : 71 b/s
Count of elements : 677
Stream size : 60.2 KiB (0%)
Title : MPEG7 | www.cinemakottaga.ml
Language : Malayalam
Default : No
Forced : No

Text #3
ID : 5
Format : PGS
Muxing mode : zlib
Codec ID : S_HDMV/PGS
Codec ID/Info : Picture based subtitle format used on BDs/HD-DVDs
Duration : 2 h 0 min
Bit rate : 11.7 kb/s
Count of elements : 1552
Stream size : 10.0 MiB (0%)
Title : MPEG7 | www.cinemakottaga.ml
Language : French
Default : No
Forced : No

Text #4
ID : 6
Format : UTF-8
Codec ID : S_TEXT/UTF8
Codec ID/Info : UTF-8 Plain Text
Duration : 2 h 1 min
Bit rate : 27 b/s
Count of elements : 1168
Stream size : 24.7 KiB (0%)
Title : MPEG7 | www.cinemakottaga.ml
Language : English
Default : No
Forced : No

Menu
00:00:00.000 : en:Chapter 1
00:10:41.474 : en:Chapter 2
00:19:05.435 : en:Chapter 3
00:30:11.309 : en:Chapter 4
00:42:54.613 : en:Chapter 5
00:49:32.344 : en:Chapter 6
00:59:54.173 : en:Chapter 7
01:13:01.543 : en:Chapter 8
01:22:07.923 : en:Chapter 9
01:30:01.729 : en:Chapter 10
01:40:38.866 : en:Chapter 11
01:49:11.545 : en:Chapter 12
01:53:05.278 : en:Chapter 13




 

Telegram  Download Guide  Donate

Mad Max: Fury Road (2015)
Mad Max: Fury Road (2015)
Mad Max: Fury Road (2015)
Mad Max: Fury Road (2015)
Mad Max: Fury Road (2015)
Mad Max: Fury Road (2015)
Mad Max: Fury Road (2015)
Mad Max: Fury Road (2015)
Mad Max: Fury Road (2015)
Mad Max: Fury Road (2015)
Original title Mad Max: Fury Road
IMDb Rating 8.1 884,845 votes
TMDb Rating 7.5 16,933 votes

Director

Cast

Tom Hardy isMax Rockatansky
Max Rockatansky
Charlize Theron isImperator Furiosa
Imperator Furiosa
Hugh Keays-Byrne isImmortan Joe
Immortan Joe
Nathan Jones isRictus Erectus
Rictus Erectus
Zoë Kravitz isToast the Knowing
Toast the Knowing
Rosie Huntington-Whiteley isThe Splendid Angharad
The Splendid Angharad
Abbey Lee isThe Dag
The Dag

Similar titles

Maari
Pirates of the Caribbean: The Curse of the Black Pearl (2003)
Warrior (2011)
Hera Pheri
Inherent Vice
Ala Vaikunthapurramuloo (2020)
The Vault (2020)
Space Sweepers (2021)
Returner (2002)
Top Gun (1986)
Thangamagan (2015)
Baaghi (2016)
CinemaKottaga